<?xml version="1.0" standalone="no"?>
<!DOCTYPE svg PUBLIC "-//W3C//DTD SVG 1.1//EN" "http://www.w3.org/Graphics/SVG/1.1/DTD/svg11.dtd" >
<svg xmlns="http://www.w3.org/2000/svg" xmlns:xlink="http://www.w3.org/1999/xlink" version="1.1">
<metadata>
Created by FontForge 20190801 at Thu Dec 21 22:56:36 2017
 By Jimmy Wärting
Copyright \(c\) 2017 by Ren_ Bieder. All rights reserved.
</metadata>
<defs>
<font id="Campton-Book" horiz-adv-x="600" >
  <font-face 
    font-family="Campton Book"
    font-weight="400"
    font-stretch="normal"
    units-per-em="1000"
    panose-1="2 11 0 4 2 1 2 2 2 3"
    ascent="770"
    descent="-230"
    x-height="464"
    cap-height="680"
    bbox="-361 -242 1446 964"
    underline-thickness="50"
    underline-position="-100"
    stemh="70"
    stemv="79"
    unicode-range="U+0020-FB02"
  />
<missing-glyph horiz-adv-x="870" 
d="M100 680h670v-680h-670v680zM700 129v481h-481zM170 547v-477h477z" />
    <glyph glyph-name="fi" unicode="fi" horiz-adv-x="644" 
d="M563 464v-464h-76v399h-272v-399h-76v399h-135v65h135v83c0 108 72 175 174 175c27 0 58 -4 92 -14l-11 -62c-25 6 -54 10 -73 10c-65 0 -106 -43 -106 -109v-83h348z" />
    <glyph glyph-name="fl" unicode="fl" horiz-adv-x="644" 
d="M487 710h76v-710h-76v399h-272v-399h-76v399h-135v65h135v83c0 108 72 175 174 175c27 0 58 -4 92 -14l-11 -64c-25 7 -54 12 -73 12c-65 0 -106 -43 -106 -109v-83h272v246z" />
    <glyph glyph-name=".notdef" horiz-adv-x="870" 
d="M100 680h670v-680h-670v680zM700 129v481h-481zM170 547v-477h477z" />
    <glyph glyph-name="A" unicode="A" horiz-adv-x="747" 
d="M633 0l-84 190h-351l-84 -190h-85l307 680h75l307 -680h-85zM229 261h288l-144 326z" />
    <glyph glyph-name="Aacute" unicode="&#xc1;" horiz-adv-x="747" 
d="M499 901l-94 -143h-71l80 143h85zM633 0l-84 190h-351l-84 -190h-85l307 680h75l307 -680h-85zM229 261h288l-144 326z" />
    <glyph glyph-name="Abreve" unicode="&#x102;" horiz-adv-x="747" 
d="M374 763c-78 0 -144 48 -144 142h57c0 -63 44 -89 87 -89s87 26 87 89h58c0 -94 -67 -142 -145 -142zM633 0l-84 190h-351l-84 -190h-85l307 680h75l307 -680h-85zM229 261h288l-144 326z" />
    <glyph glyph-name="uni01CD" unicode="&#x1cd;" horiz-adv-x="747" 
d="M412 755h-77l-123 145h74l88 -97l86 97h74zM633 0l-84 190h-351l-84 -190h-85l307 680h75l307 -680h-85zM229 261h288l-144 326z" />
    <glyph glyph-name="Acircumflex" unicode="&#xc2;" horiz-adv-x="747" 
d="M374 857l-88 -97h-74l123 145h77l122 -145h-74zM633 0l-84 190h-351l-84 -190h-85l307 680h75l307 -680h-85zM229 261h288l-144 326z" />
    <glyph glyph-name="Adieresis" unicode="&#xc4;" horiz-adv-x="747" 
d="M278 767c-29 0 -53 22 -53 51s24 52 53 52c30 0 53 -23 53 -52s-23 -51 -53 -51zM469 767c-30 0 -53 22 -53 51s23 52 53 52c29 0 53 -23 53 -52s-24 -51 -53 -51zM633 0l-84 190h-351l-84 -190h-85l307 680h75l307 -680h-85zM229 261h288l-144 326z" />
    <glyph glyph-name="Agrave" unicode="&#xc0;" horiz-adv-x="747" 
d="M419 758h-71l-94 143h85zM633 0l-84 190h-351l-84 -190h-85l307 680h75l307 -680h-85zM229 261h288l-144 326z" />
    <glyph glyph-name="Amacron" unicode="&#x100;" horiz-adv-x="747" 
d="M513 831v-63h-278v63h278zM633 0l-84 190h-351l-84 -190h-85l307 680h75l307 -680h-85zM229 261h288l-144 326z" />
    <glyph glyph-name="Aogonek" unicode="&#x104;" horiz-adv-x="747" 
d="M728 -119l8 -58c-11 -4 -33 -8 -53 -8c-78 0 -131 42 -131 106c0 43 30 77 72 99l-75 170h-351l-84 -190h-85l307 680h75l307 -680h-28c-43 -14 -72 -35 -72 -71c0 -32 27 -52 75 -52c13 0 23 2 35 4zM229 261h288l-144 326z" />
    <glyph glyph-name="Aring" unicode="&#xc5;" horiz-adv-x="747" 
d="M374 769c-60 0 -102 41 -102 98s42 97 102 97c59 0 101 -40 101 -97s-42 -98 -101 -98zM374 922c-32 0 -56 -24 -56 -55c0 -32 24 -56 56 -56s55 24 55 56c0 31 -23 55 -55 55zM633 0l-84 190h-351l-84 -190h-85l307 680h75l307 -680h-85zM229 261h288l-144 326z" />
    <glyph glyph-name="Atilde" unicode="&#xc3;" horiz-adv-x="747" 
d="M339 821c-37 24 -68 7 -68 -30h-62c0 102 92 121 148 86l42 -27c40 -27 69 -7 69 29h62c0 -101 -89 -124 -148 -86zM633 0l-84 190h-351l-84 -190h-85l307 680h75l307 -680h-85zM229 261h288l-144 326z" />
    <glyph glyph-name="AE" unicode="&#xc6;" horiz-adv-x="1081" 
d="M1020 607h-397v-233h357v-73h-357v-228h397v-73h-476v190h-278l-140 -190h-97l507 680h484v-73zM319 263h225v306z" />
    <glyph glyph-name="B" unicode="B" horiz-adv-x="689" 
d="M481 352c100 -17 150 -82 150 -166c0 -111 -97 -186 -248 -186h-290v680h282c137 0 221 -67 221 -172c0 -75 -42 -134 -115 -156zM367 610h-195v-233h185c105 0 164 47 164 122c0 68 -58 111 -154 111zM380 70c109 0 173 53 173 124c0 74 -64 117 -171 117h-210v-241h208
z" />
    <glyph glyph-name="C" unicode="C" horiz-adv-x="806" 
d="M418 61c124 0 214 72 242 182h82c-32 -153 -157 -256 -324 -256c-196 0 -354 152 -354 353s158 352 354 352c167 0 292 -102 324 -255h-82c-28 111 -118 181 -242 181c-154 0 -274 -119 -274 -278s120 -279 274 -279z" />
    <glyph glyph-name="Cacute" unicode="&#x106;" horiz-adv-x="806" 
d="M544 901l-94 -143h-71l80 143h85zM418 61c124 0 214 72 242 182h82c-32 -153 -157 -256 -324 -256c-196 0 -354 152 -354 353s158 352 354 352c167 0 292 -102 324 -255h-82c-28 111 -118 181 -242 181c-154 0 -274 -119 -274 -278s120 -279 274 -279z" />
    <glyph glyph-name="Ccaron" unicode="&#x10c;" horiz-adv-x="806" 
d="M457 755h-77l-123 145h74l88 -97l86 97h74zM418 61c124 0 214 72 242 182h82c-32 -153 -157 -256 -324 -256c-196 0 -354 152 -354 353s158 352 354 352c167 0 292 -102 324 -255h-82c-28 111 -118 181 -242 181c-154 0 -274 -119 -274 -278s120 -279 274 -279z" />
    <glyph glyph-name="Ccedilla" unicode="&#xc7;" horiz-adv-x="806" 
d="M418 61c124 0 214 72 242 182h82c-32 -153 -157 -256 -324 -256c-196 0 -354 152 -354 353s158 352 354 352c167 0 292 -102 324 -255h-82c-28 111 -118 181 -242 181c-154 0 -274 -119 -274 -278s120 -279 274 -279zM328 -215l46 147h75l-55 -147h-66z" />
    <glyph glyph-name="Cdotaccent" unicode="&#x10a;" horiz-adv-x="806" 
d="M419 767c-29 0 -53 22 -53 51s24 52 53 52c30 0 53 -23 53 -52s-23 -51 -53 -51zM418 61c124 0 214 72 242 182h82c-32 -153 -157 -256 -324 -256c-196 0 -354 152 -354 353s158 352 354 352c167 0 292 -102 324 -255h-82c-28 111 -118 181 -242 181
c-154 0 -274 -119 -274 -278s120 -279 274 -279z" />
    <glyph glyph-name="D" unicode="D" horiz-adv-x="755" 
d="M332 680c210 0 359 -139 359 -335c0 -202 -149 -345 -359 -345h-239v680h239zM332 73c162 0 278 113 278 272c0 152 -116 262 -278 262h-160v-534h160z" />
    <glyph glyph-name="Eth" unicode="&#xd0;" horiz-adv-x="750" 
d="M332 680c210 0 359 -139 359 -335c0 -202 -149 -345 -359 -345h-239v305h-69v68h69v307h239zM332 73c162 0 278 113 278 272c0 152 -116 262 -278 262h-160v-234h171v-68h-171v-232h160z" />
    <glyph glyph-name="Dcaron" unicode="&#x10e;" horiz-adv-x="755" 
d="M383 755h-77l-123 145h74l88 -97l86 97h74zM332 680c210 0 359 -139 359 -335c0 -202 -149 -345 -359 -345h-239v680h239zM332 73c162 0 278 113 278 272c0 152 -116 262 -278 262h-160v-534h160z" />
    <glyph glyph-name="Dcroat" unicode="&#x110;" horiz-adv-x="750" 
d="M332 680c210 0 359 -139 359 -335c0 -202 -149 -345 -359 -345h-239v305h-69v68h69v307h239zM332 73c162 0 278 113 278 272c0 152 -116 262 -278 262h-160v-234h171v-68h-171v-232h160z" />
    <glyph glyph-name="E" unicode="E" horiz-adv-x="630" 
d="M569 607h-397v-233h357v-73h-357v-228h397v-73h-476v680h476v-73z" />
    <glyph glyph-name="Eacute" unicode="&#xc9;" horiz-adv-x="630" 
d="M454 901l-94 -143h-71l80 143h85zM569 607h-397v-233h357v-73h-357v-228h397v-73h-476v680h476v-73z" />
    <glyph glyph-name="Ecaron" unicode="&#x11a;" horiz-adv-x="630" 
d="M367 755h-77l-123 145h74l88 -97l86 97h74zM569 607h-397v-233h357v-73h-357v-228h397v-73h-476v680h476v-73z" />
    <glyph glyph-name="Ecircumflex" unicode="&#xca;" horiz-adv-x="630" 
d="M329 857l-88 -97h-74l123 145h77l122 -145h-74zM569 607h-397v-233h357v-73h-357v-228h397v-73h-476v680h476v-73z" />
    <glyph glyph-name="Edieresis" unicode="&#xcb;" horiz-adv-x="630" 
d="M233 767c-29 0 -53 22 -53 51s24 52 53 52c30 0 53 -23 53 -52s-23 -51 -53 -51zM424 767c-30 0 -53 22 -53 51s23 52 53 52c29 0 53 -23 53 -52s-24 -51 -53 -51zM569 607h-397v-233h357v-73h-357v-228h397v-73h-476v680h476v-73z" />
    <glyph glyph-name="Edotaccent" unicode="&#x116;" horiz-adv-x="630" 
d="M329 767c-29 0 -53 22 -53 51s24 52 53 52c30 0 53 -23 53 -52s-23 -51 -53 -51zM569 607h-397v-233h357v-73h-357v-228h397v-73h-476v680h476v-73z" />
    <glyph glyph-name="Egrave" unicode="&#xc8;" horiz-adv-x="630" 
d="M374 758h-71l-94 143h85zM569 607h-397v-233h357v-73h-357v-228h397v-73h-476v680h476v-73z" />
    <glyph glyph-name="Emacron" unicode="&#x112;" horiz-adv-x="630" 
d="M468 831v-63h-278v63h278zM569 607h-397v-233h357v-73h-357v-228h397v-73h-476v680h476v-73z" />
    <glyph glyph-name="Eogonek" unicode="&#x118;" horiz-adv-x="630" 
d="M597 -122l8 -58c-11 -4 -33 -8 -53 -8c-78 0 -131 42 -131 106c0 33 18 61 45 82h-373v680h476v-73h-397v-233h357v-73h-357v-228h397v-73c-48 -14 -82 -35 -82 -74c0 -32 27 -52 75 -52c13 0 23 2 35 4z" />
    <glyph glyph-name="F" unicode="F" horiz-adv-x="596" 
d="M560 607h-388v-250h346v-73h-346v-284h-79v680h467v-73z" />
    <glyph glyph-name="G" unicode="G" horiz-adv-x="830" 
d="M409 359h337v-359h-64l-6 139c-49 -91 -136 -151 -260 -151c-201 0 -352 156 -352 347c0 206 159 357 357 357c148 0 285 -85 323 -237h-85c-34 110 -137 163 -237 163c-157 0 -278 -118 -278 -283c0 -148 113 -273 272 -273c139 0 227 97 246 224h-253v73z" />
    <glyph glyph-name="Gbreve" unicode="&#x11e;" horiz-adv-x="830" 
d="M419 763c-78 0 -144 48 -144 142h57c0 -63 44 -89 87 -89s87 26 87 89h58c0 -94 -67 -142 -145 -142zM409 359h337v-359h-64l-6 139c-49 -91 -136 -151 -260 -151c-201 0 -352 156 -352 347c0 206 159 357 357 357c148 0 285 -85 323 -237h-85c-34 110 -137 163 -237 163
c-157 0 -278 -118 -278 -283c0 -148 113 -273 272 -273c139 0 227 97 246 224h-253v73z" />
    <glyph glyph-name="Gcommaaccent" unicode="&#x122;" horiz-adv-x="830" 
d="M409 359h337v-359h-64l-6 139c-49 -91 -136 -151 -260 -151c-201 0 -352 156 -352 347c0 206 159 357 357 357c148 0 285 -85 323 -237h-85c-34 110 -137 163 -237 163c-157 0 -278 -118 -278 -283c0 -148 113 -273 272 -273c139 0 227 97 246 224h-253v73zM410 -63
c25 0 49 -19 49 -48c0 -21 -5 -28 -56 -128h-45l37 87c-24 6 -35 22 -35 42c0 26 22 47 50 47z" />
    <glyph glyph-name="Gdotaccent" unicode="&#x120;" horiz-adv-x="830" 
d="M419 767c-29 0 -53 22 -53 51s24 52 53 52c30 0 53 -23 53 -52s-23 -51 -53 -51zM409 359h337v-359h-64l-6 139c-49 -91 -136 -151 -260 -151c-201 0 -352 156 -352 347c0 206 159 357 357 357c148 0 285 -85 323 -237h-85c-34 110 -137 163 -237 163
c-157 0 -278 -118 -278 -283c0 -148 113 -273 272 -273c139 0 227 97 246 224h-253v73z" />
    <glyph glyph-name="H" unicode="H" horiz-adv-x="743" 
d="M571 680h79v-680h-79v300h-399v-300h-79v680h79v-307h399v307z" />
    <glyph glyph-name="Hbar" unicode="&#x126;" horiz-adv-x="743" 
d="M696 560v-61h-46v-499h-79v300h-399v-300h-79v499h-52v61h52v120h79v-120h399v120h79v-120h46zM571 373v126h-399v-126h399z" />
    <glyph glyph-name="I" unicode="I" horiz-adv-x="264" 
d="M93 680h79v-680h-79v680z" />
    <glyph glyph-name="IJ" unicode="&#x132;" horiz-adv-x="859" 
d="M93 680h79v-680h-79v680zM776 680v-434c0 -165 -97 -258 -248 -258c-133 0 -229 79 -244 210h80c12 -87 77 -136 169 -136c96 0 163 67 163 186v432h80z" />
    <glyph glyph-name="Iacute" unicode="&#xcd;" horiz-adv-x="264" 
d="M172 901h85l-94 -143h-71zM93 680h79v-680h-79v680z" />
    <glyph glyph-name="Icircumflex" unicode="&#xce;" horiz-adv-x="264" 
d="M218 760l-86 97l-88 -97h-74l123 145h77l122 -145h-74zM93 680h79v-680h-79v680z" />
    <glyph glyph-name="Idieresis" unicode="&#xcf;" horiz-adv-x="264" 
d="M36 870c30 0 53 -23 53 -52s-23 -51 -53 -51c-29 0 -53 22 -53 51s24 52 53 52zM227 870c29 0 53 -23 53 -52s-24 -51 -53 -51c-30 0 -53 22 -53 51s23 52 53 52zM93 680h79v-680h-79v680z" />
    <glyph glyph-name="Idotaccent" unicode="&#x130;" horiz-adv-x="264" 
d="M132 769c-29 0 -54 22 -54 52s25 53 54 53c31 0 55 -23 55 -53s-24 -52 -55 -52zM93 680h79v-680h-79v680z" />
    <glyph glyph-name="Igrave" unicode="&#xcc;" horiz-adv-x="264" 
d="M97 901l80 -143h-71l-94 143h85zM93 680h79v-680h-79v680z" />
    <glyph glyph-name="Imacron" unicode="&#x12a;" horiz-adv-x="264" 
d="M-7 831h278v-63h-278v63zM93 680h79v-680h-79v680z" />
    <glyph glyph-name="Iogonek" unicode="&#x12e;" horiz-adv-x="264" 
d="M200 -122l8 -58c-11 -4 -33 -8 -53 -8c-78 0 -131 42 -131 106c0 42 28 75 69 97v665h79v-680c-48 -14 -82 -35 -82 -74c0 -32 27 -52 75 -52c13 0 23 2 35 4z" />
    <glyph glyph-name="J" unicode="J" horiz-adv-x="595" 
d="M512 680v-434c0 -165 -97 -258 -248 -258c-133 0 -229 79 -244 210h80c12 -87 77 -136 169 -136c96 0 163 67 163 186v432h80z" />
    <glyph glyph-name="K" unicode="K" horiz-adv-x="705" 
d="M581 0l-277 314l-132 -139v-175h-79v680h79v-396l379 396h97l-290 -308l325 -372h-102z" />
    <glyph glyph-name="Kcommaaccent" unicode="&#x136;" horiz-adv-x="705" 
d="M358 372l325 -372h-102l-277 314l-132 -139v-175h-79v680h79v-396l379 396h97zM347 -63c25 0 49 -19 49 -48c0 -21 -5 -28 -56 -128h-45l37 87c-24 6 -35 22 -35 42c0 26 22 47 50 47z" />
    <glyph glyph-name="L" unicode="L" horiz-adv-x="578" 
d="M172 73h375v-73h-454v680h79v-607z" />
    <glyph glyph-name="Lacute" unicode="&#x139;" horiz-adv-x="578" 
d="M258 901l-94 -143h-71l80 143h85zM172 73h375v-73h-454v680h79v-607z" />
    <glyph glyph-name="Lcaron" unicode="&#x13d;" horiz-adv-x="578" 
d="M172 73h375v-73h-454v680h79v-607zM411 680l-28 -187h-59l9 187h78z" />
    <glyph glyph-name="Lcommaaccent" unicode="&#x13b;" horiz-adv-x="578" 
d="M172 73h375v-73h-454v680h79v-607zM324 -63c25 0 49 -19 49 -48c0 -21 -5 -28 -56 -128h-45l37 87c-24 6 -35 22 -35 42c0 26 22 47 50 47z" />
    <glyph glyph-name="Ldot" unicode="&#x13f;" horiz-adv-x="578" 
d="M172 73h375v-73h-454v680h79v-607zM375 274c-29 0 -53 22 -53 51s24 52 53 52c30 0 53 -23 53 -52s-23 -51 -53 -51z" />
    <glyph glyph-name="Lslash" unicode="&#x141;" horiz-adv-x="578" 
d="M172 73h375v-73h-454v247l-73 -35v69l73 35v364h79v-326l160 77v-69l-160 -77v-212z" />
    <glyph glyph-name="M" unicode="M" horiz-adv-x="849" 
d="M757 680v-680h-79v507l-227 -377h-52l-229 379l2 -509h-79v680h60l272 -454l272 454h60z" />
    <glyph glyph-name="N" unicode="N" horiz-adv-x="766" 
d="M594 680h79v-680h-66l-435 536v-536h-79v680h64l437 -543v543z" />
    <glyph glyph-name="Nacute" unicode="&#x143;" horiz-adv-x="766" 
d="M508 901l-94 -143h-71l80 143h85zM594 680h79v-680h-66l-435 536v-536h-79v680h64l437 -543v543z" />
    <glyph glyph-name="Ncaron" unicode="&#x147;" horiz-adv-x="766" 
d="M421 755h-77l-123 145h74l88 -97l86 97h74zM594 680h79v-680h-66l-435 536v-536h-79v680h64l437 -543v543z" />
    <glyph glyph-name="Ncommaaccent" unicode="&#x145;" horiz-adv-x="766" 
d="M594 680h79v-680h-66l-435 536v-536h-79v680h64l437 -543v543zM367 -63c25 0 49 -19 49 -48c0 -21 -5 -28 -56 -128h-45l37 87c-24 6 -35 22 -35 42c0 26 22 47 50 47z" />
    <glyph glyph-name="Ntilde" unicode="&#xd1;" horiz-adv-x="766" 
d="M348 821c-37 24 -68 7 -68 -30h-62c0 102 92 121 148 86l42 -27c40 -27 69 -7 69 29h62c0 -101 -89 -124 -148 -86zM594 680h79v-680h-66l-435 536v-536h-79v680h64l437 -543v543z" />
    <glyph glyph-name="O" unicode="O" horiz-adv-x="836" 
d="M418 692c196 0 354 -156 354 -352s-158 -352 -354 -352s-354 156 -354 352s158 352 354 352zM418 62c154 0 274 124 274 278s-120 278 -274 278s-274 -124 -274 -278s120 -278 274 -278z" />
    <glyph glyph-name="Oacute" unicode="&#xd3;" horiz-adv-x="836" 
d="M458 901h85l-94 -143h-71zM418 692c196 0 354 -156 354 -352s-158 -352 -354 -352s-354 156 -354 352s158 352 354 352zM418 62c154 0 274 124 274 278s-120 278 -274 278s-274 -124 -274 -278s120 -278 274 -278z" />
    <glyph glyph-name="Ocircumflex" unicode="&#xd4;" horiz-adv-x="836" 
d="M504 760l-86 97l-88 -97h-74l123 145h77l122 -145h-74zM418 692c196 0 354 -156 354 -352s-158 -352 -354 -352s-354 156 -354 352s158 352 354 352zM418 62c154 0 274 124 274 278s-120 278 -274 278s-274 -124 -274 -278s120 -278 274 -278z" />
    <glyph glyph-name="Odieresis" unicode="&#xd6;" horiz-adv-x="836" 
d="M322 870c30 0 53 -23 53 -52s-23 -51 -53 -51c-29 0 -53 22 -53 51s24 52 53 52zM513 870c29 0 53 -23 53 -52s-24 -51 -53 -51c-30 0 -53 22 -53 51s23 52 53 52zM418 692c196 0 354 -156 354 -352s-158 -352 -354 -352s-354 156 -354 352s158 352 354 352zM418 62
c154 0 274 124 274 278s-120 278 -274 278s-274 -124 -274 -278s120 -278 274 -278z" />
    <glyph glyph-name="Ograve" unicode="&#xd2;" horiz-adv-x="836" 
d="M383 901l80 -143h-71l-94 143h85zM418 692c196 0 354 -156 354 -352s-158 -352 -354 -352s-354 156 -354 352s158 352 354 352zM418 62c154 0 274 124 274 278s-120 278 -274 278s-274 -124 -274 -278s120 -278 274 -278z" />
    <glyph glyph-name="Ohungarumlaut" unicode="&#x150;" horiz-adv-x="836" 
d="M378 901h80l-83 -143h-66zM515 901h80l-84 -143h-65zM418 692c196 0 354 -156 354 -352s-158 -352 -354 -352s-354 156 -354 352s158 352 354 352zM418 62c154 0 274 124 274 278s-120 278 -274 278s-274 -124 -274 -278s120 -278 274 -278z" />
    <glyph glyph-name="Omacron" unicode="&#x14c;" horiz-adv-x="836" 
d="M279 831h278v-63h-278v63zM418 692c196 0 354 -156 354 -352s-158 -352 -354 -352s-354 156 -354 352s158 352 354 352zM418 62c154 0 274 124 274 278s-120 278 -274 278s-274 -124 -274 -278s120 -278 274 -278z" />
    <glyph glyph-name="Oslash" unicode="&#xd8;" horiz-adv-x="836" 
d="M668 590c64 -64 104 -152 104 -250c0 -196 -158 -352 -354 -352c-75 0 -145 23 -202 62l-58 -69l-49 42l57 69c-63 63 -102 151 -102 248c0 196 158 352 354 352c75 0 144 -23 201 -61l53 63l49 -41zM144 340c0 -73 27 -140 72 -189l354 421c-43 29 -95 46 -152 46
c-154 0 -274 -124 -274 -278zM418 62c154 0 274 124 274 278c0 74 -28 141 -73 191l-354 -422c43 -30 96 -47 153 -47z" />
    <glyph glyph-name="Otilde" unicode="&#xd5;" horiz-adv-x="836" 
d="M574 879c0 -101 -89 -124 -148 -86l-43 28c-37 24 -68 7 -68 -30h-62c0 102 92 121 148 86l42 -27c40 -27 69 -7 69 29h62zM418 692c196 0 354 -156 354 -352s-158 -352 -354 -352s-354 156 -354 352s158 352 354 352zM418 62c154 0 274 124 274 278s-120 278 -274 278
s-274 -124 -274 -278s120 -278 274 -278z" />
    <glyph glyph-name="OE" unicode="&#x152;" horiz-adv-x="1034" 
d="M974 607h-397v-233h357v-73h-357v-228h397v-73h-531c-221 0 -379 144 -379 340s158 340 379 340h531v-73zM443 74l55 1v531h-55c-179 0 -299 -112 -299 -266s120 -266 299 -266z" />
    <glyph glyph-name="P" unicode="P" horiz-adv-x="631" 
d="M333 680c157 0 262 -90 262 -226c0 -141 -109 -234 -272 -234h-151v-220h-79v680h240zM330 293c112 0 187 64 187 161c0 92 -75 154 -187 154h-158v-315h158z" />
    <glyph glyph-name="Thorn" unicode="&#xde;" horiz-adv-x="631" 
d="M333 573c157 0 262 -90 262 -226c0 -141 -109 -234 -272 -234h-151v-113h-79v680h79v-107h161zM330 186c112 0 187 64 187 161c0 92 -75 154 -187 154h-158v-315h158z" />
    <glyph glyph-name="Q" unicode="Q" horiz-adv-x="836" 
d="M772 340c0 -126 -65 -235 -163 -297l126 -155l-58 -53l-141 173c-37 -13 -77 -20 -118 -20c-196 0 -354 156 -354 352s158 352 354 352s354 -156 354 -352zM144 340c0 -154 120 -278 274 -278s274 124 274 278s-120 278 -274 278s-274 -124 -274 -278z" />
    <glyph glyph-name="R" unicode="R" horiz-adv-x="676" 
d="M543 0l-198 243h-173v-243h-79v680h257c153 0 260 -84 260 -218c0 -108 -69 -184 -175 -209l206 -253h-98zM172 607v-291h176c106 0 184 55 184 146s-78 145 -184 145h-176z" />
    <glyph glyph-name="Racute" unicode="&#x154;" horiz-adv-x="676" 
d="M439 901l-94 -143h-71l80 143h85zM543 0l-198 243h-173v-243h-79v680h257c153 0 260 -84 260 -218c0 -108 -69 -184 -175 -209l206 -253h-98zM172 607v-291h176c106 0 184 55 184 146s-78 145 -184 145h-176z" />
    <glyph glyph-name="Rcaron" unicode="&#x158;" horiz-adv-x="676" 
d="M352 755h-77l-123 145h74l88 -97l86 97h74zM543 0l-198 243h-173v-243h-79v680h257c153 0 260 -84 260 -218c0 -108 -69 -184 -175 -209l206 -253h-98zM172 607v-291h176c106 0 184 55 184 146s-78 145 -184 145h-176z" />
    <glyph glyph-name="Rcommaaccent" unicode="&#x156;" horiz-adv-x="676" 
d="M435 253l206 -253h-98l-198 243h-173v-243h-79v680h257c153 0 260 -84 260 -218c0 -108 -69 -184 -175 -209zM172 607v-291h176c106 0 184 55 184 146s-78 145 -184 145h-176zM328 -63c25 0 49 -19 49 -48c0 -21 -5 -28 -56 -128h-45l37 87c-24 6 -35 22 -35 42
c0 26 22 47 50 47z" />
    <glyph glyph-name="S" unicode="S" horiz-adv-x="662" 
d="M331 692c134 0 250 -59 267 -199h-79c-15 81 -72 131 -183 131c-100 0 -165 -45 -165 -122c0 -60 43 -94 124 -110l111 -21c122 -24 191 -79 191 -179c0 -124 -102 -204 -255 -204c-163 0 -269 83 -284 230h78c16 -102 89 -159 210 -159c104 0 170 47 170 124
c0 54 -37 96 -123 111l-127 25c-121 23 -179 85 -179 178c0 119 98 195 244 195z" />
    <glyph glyph-name="Sacute" unicode="&#x15a;" horiz-adv-x="662" 
d="M371 901h85l-94 -143h-71zM331 692c134 0 250 -59 267 -199h-79c-15 81 -72 131 -183 131c-100 0 -165 -45 -165 -122c0 -60 43 -94 124 -110l111 -21c122 -24 191 -79 191 -179c0 -124 -102 -204 -255 -204c-163 0 -269 83 -284 230h78c16 -102 89 -159 210 -159
c104 0 170 47 170 124c0 54 -37 96 -123 111l-127 25c-121 23 -179 85 -179 178c0 119 98 195 244 195z" />
    <glyph glyph-name="Scaron" unicode="&#x160;" horiz-adv-x="662" 
d="M417 900h74l-122 -145h-77l-123 145h74l88 -97zM331 692c134 0 250 -59 267 -199h-79c-15 81 -72 131 -183 131c-100 0 -165 -45 -165 -122c0 -60 43 -94 124 -110l111 -21c122 -24 191 -79 191 -179c0 -124 -102 -204 -255 -204c-163 0 -269 83 -284 230h78
c16 -102 89 -159 210 -159c104 0 170 47 170 124c0 54 -37 96 -123 111l-127 25c-121 23 -179 85 -179 178c0 119 98 195 244 195z" />
    <glyph glyph-name="Scedilla" unicode="&#x15e;" horiz-adv-x="662" 
d="M331 692c134 0 250 -59 267 -199h-79c-15 81 -72 131 -183 131c-100 0 -165 -45 -165 -122c0 -60 43 -94 124 -110l111 -21c122 -24 191 -79 191 -179c0 -124 -102 -204 -255 -204c-163 0 -269 83 -284 230h78c16 -102 89 -159 210 -159c104 0 170 47 170 124
c0 54 -37 96 -123 111l-127 25c-121 23 -179 85 -179 178c0 119 98 195 244 195zM386 -68l-55 -147h-66l46 147h75z" />
    <glyph glyph-name="Scommaaccent" unicode="&#x218;" horiz-adv-x="662" 
d="M331 692c134 0 250 -59 267 -199h-79c-15 81 -72 131 -183 131c-100 0 -165 -45 -165 -122c0 -60 43 -94 124 -110l111 -21c122 -24 191 -79 191 -179c0 -124 -102 -204 -255 -204c-163 0 -269 83 -284 230h78c16 -102 89 -159 210 -159c104 0 170 47 170 124
c0 54 -37 96 -123 111l-127 25c-121 23 -179 85 -179 178c0 119 98 195 244 195zM289 -239l37 87c-24 6 -35 22 -35 42c0 26 22 47 50 47c25 0 49 -19 49 -48c0 -21 -5 -28 -56 -128h-45z" />
    <glyph glyph-name="uni1E9E" unicode="&#x1e9e;" horiz-adv-x="725" 
d="M453 392c129 -1 220 -78 220 -195c0 -124 -101 -211 -253 -211c-37 0 -86 5 -129 17v71c45 -14 86 -19 121 -19c109 0 181 56 181 139c0 79 -68 132 -169 132h-77v37l196 244h-213c-97 0 -161 -63 -161 -157v-450h-79v447c0 140 96 233 240 233h319v-49z" />
    <glyph glyph-name="T" unicode="T" horiz-adv-x="637" 
d="M609 680v-73h-251v-607h-79v607h-250v73h580z" />
    <glyph glyph-name="Tcaron" unicode="&#x164;" horiz-adv-x="637" 
d="M357 755h-77l-123 145h74l88 -97l86 97h74zM609 680v-73h-251v-607h-79v607h-250v73h580z" />
    <glyph glyph-name="uni0162" unicode="&#x162;" horiz-adv-x="637" 
d="M609 680v-73h-251v-607h-79v607h-250v73h580zM237 -215l46 147h75l-55 -147h-66z" />
    <glyph glyph-name="uni021A" unicode="&#x21a;" horiz-adv-x="637" 
d="M609 680v-73h-251v-607h-79v607h-250v73h580zM306 -63c25 0 49 -19 49 -48c0 -21 -5 -28 -56 -128h-45l37 87c-24 6 -35 22 -35 42c0 26 22 47 50 47z" />
    <glyph glyph-name="U" unicode="U" horiz-adv-x="748" 
d="M665 680v-389c0 -181 -116 -303 -291 -303s-291 122 -291 303v389h79v-389c0 -133 84 -229 212 -229c127 0 212 96 212 229v389h79z" />
    <glyph glyph-name="Uacute" unicode="&#xda;" horiz-adv-x="748" 
d="M414 901h85l-94 -143h-71zM665 680v-389c0 -181 -116 -303 -291 -303s-291 122 -291 303v389h79v-389c0 -133 84 -229 212 -229c127 0 212 96 212 229v389h79z" />
    <glyph glyph-name="Ucircumflex" unicode="&#xdb;" horiz-adv-x="748" 
d="M460 760l-86 97l-88 -97h-74l123 145h77l122 -145h-74zM665 680v-389c0 -181 -116 -303 -291 -303s-291 122 -291 303v389h79v-389c0 -133 84 -229 212 -229c127 0 212 96 212 229v389h79z" />
    <glyph glyph-name="Udieresis" unicode="&#xdc;" horiz-adv-x="748" 
d="M278 870c30 0 53 -23 53 -52s-23 -51 -53 -51c-29 0 -53 22 -53 51s24 52 53 52zM469 870c29 0 53 -23 53 -52s-24 -51 -53 -51c-30 0 -53 22 -53 51s23 52 53 52zM665 680v-389c0 -181 -116 -303 -291 -303s-291 122 -291 303v389h79v-389c0 -133 84 -229 212 -229
c127 0 212 96 212 229v389h79z" />
    <glyph glyph-name="Ugrave" unicode="&#xd9;" horiz-adv-x="748" 
d="M339 901l80 -143h-71l-94 143h85zM665 680v-389c0 -181 -116 -303 -291 -303s-291 122 -291 303v389h79v-389c0 -133 84 -229 212 -229c127 0 212 96 212 229v389h79z" />
    <glyph glyph-name="Uhungarumlaut" unicode="&#x170;" horiz-adv-x="748" 
d="M334 901h80l-83 -143h-66zM471 901h80l-84 -143h-65zM665 680v-389c0 -181 -116 -303 -291 -303s-291 122 -291 303v389h79v-389c0 -133 84 -229 212 -229c127 0 212 96 212 229v389h79z" />
    <glyph glyph-name="Umacron" unicode="&#x16a;" horiz-adv-x="748" 
d="M235 831h278v-63h-278v63zM665 680v-389c0 -181 -116 -303 -291 -303s-291 122 -291 303v389h79v-389c0 -133 84 -229 212 -229c127 0 212 96 212 229v389h79z" />
    <glyph glyph-name="Uogonek" unicode="&#x172;" horiz-adv-x="748" 
d="M586 680h79v-389c0 -133 -63 -234 -166 -279c-58 -37 -85 -66 -85 -101c0 -33 25 -56 73 -56c13 0 23 1 36 4l7 -65c-11 -3 -33 -6 -53 -6c-78 0 -128 42 -128 106c0 34 18 66 50 95c-8 -1 -17 -1 -25 -1c-175 0 -291 122 -291 303v389h79v-389c0 -133 84 -229 212 -229
c127 0 212 96 212 229v389z" />
    <glyph glyph-name="Uring" unicode="&#x16e;" horiz-adv-x="748" 
d="M374 964c59 0 101 -40 101 -97s-42 -98 -101 -98c-60 0 -102 41 -102 98s42 97 102 97zM374 811c32 0 55 24 55 56c0 31 -23 55 -55 55s-56 -24 -56 -55c0 -32 24 -56 56 -56zM665 680v-389c0 -181 -116 -303 -291 -303s-291 122 -291 303v389h79v-389
c0 -133 84 -229 212 -229c127 0 212 96 212 229v389h79z" />
    <glyph glyph-name="V" unicode="V" horiz-adv-x="750" 
d="M638 680h87l-313 -685h-74l-313 685h87l263 -579z" />
    <glyph glyph-name="W" unicode="W" horiz-adv-x="1038" 
d="M930 680h83l-232 -685h-77l-185 544l-185 -544h-77l-232 685h83l187 -564l190 564h68l189 -563z" />
    <glyph glyph-name="Wacute" unicode="&#x1e82;" horiz-adv-x="1038" 
d="M644 901l-94 -143h-71l80 143h85zM930 680h83l-232 -685h-77l-185 544l-185 -544h-77l-232 685h83l187 -564l190 564h68l189 -563z" />
    <glyph glyph-name="Wcircumflex" unicode="&#x174;" horiz-adv-x="1038" 
d="M519 857l-88 -97h-74l123 145h77l122 -145h-74zM930 680h83l-232 -685h-77l-185 544l-185 -544h-77l-232 685h83l187 -564l190 564h68l189 -563z" />
    <glyph glyph-name="Wdieresis" unicode="&#x1e84;" horiz-adv-x="1038" 
d="M423 767c-29 0 -53 22 -53 51s24 52 53 52c30 0 53 -23 53 -52s-23 -51 -53 -51zM614 767c-30 0 -53 22 -53 51s23 52 53 52c29 0 53 -23 53 -52s-24 -51 -53 -51zM930 680h83l-232 -685h-77l-185 544l-185 -544h-77l-232 685h83l187 -564l190 564h68l189 -563z" />
    <glyph glyph-name="Wgrave" unicode="&#x1e80;" horiz-adv-x="1038" 
d="M564 758h-71l-94 143h85zM930 680h83l-232 -685h-77l-185 544l-185 -544h-77l-232 685h83l187 -564l190 564h68l189 -563z" />
    <glyph glyph-name="X" unicode="X" horiz-adv-x="663" 
d="M640 0h-93l-215 278l-216 -278h-92l255 338l-248 342h97l204 -280l203 280h97l-248 -342z" />
    <glyph glyph-name="Y" unicode="Y" horiz-adv-x="669" 
d="M566 680h88l-279 -439v-241h-80v241l-280 439h88l232 -364z" />
    <glyph glyph-name="Yacute" unicode="&#xdd;" horiz-adv-x="669" 
d="M460 901l-94 -143h-71l80 143h85zM566 680h88l-279 -439v-241h-80v241l-280 439h88l232 -364z" />
    <glyph glyph-name="Ycircumflex" unicode="&#x176;" horiz-adv-x="669" 
d="M335 857l-88 -97h-74l123 145h77l122 -145h-74zM566 680h88l-279 -439v-241h-80v241l-280 439h88l232 -364z" />
    <glyph glyph-name="Ydieresis" unicode="&#x178;" horiz-adv-x="669" 
d="M239 767c-29 0 -53 22 -53 51s24 52 53 52c30 0 53 -23 53 -52s-23 -51 -53 -51zM430 767c-30 0 -53 22 -53 51s23 52 53 52c29 0 53 -23 53 -52s-24 -51 -53 -51zM566 680h88l-279 -439v-241h-80v241l-280 439h88l232 -364z" />
    <glyph glyph-name="Ygrave" unicode="&#x1ef2;" horiz-adv-x="669" 
d="M380 758h-71l-94 143h85zM566 680h88l-279 -439v-241h-80v241l-280 439h88l232 -364z" />
    <glyph glyph-name="Z" unicode="Z" horiz-adv-x="654" 
d="M181 72h412v-72h-535v41l419 567h-406v72h519v-40z" />
    <glyph glyph-name="Zacute" unicode="&#x179;" horiz-adv-x="654" 
d="M453 901l-94 -143h-71l80 143h85zM181 72h412v-72h-535v41l419 567h-406v72h519v-40z" />
    <glyph glyph-name="Zcaron" unicode="&#x17d;" horiz-adv-x="654" 
d="M366 755h-77l-123 145h74l88 -97l86 97h74zM181 72h412v-72h-535v41l419 567h-406v72h519v-40z" />
    <glyph glyph-name="Zdotaccent" unicode="&#x17b;" horiz-adv-x="654" 
d="M328 767c-29 0 -53 22 -53 51s24 52 53 52c30 0 53 -23 53 -52s-23 -51 -53 -51zM181 72h412v-72h-535v41l419 567h-406v72h519v-40z" />
    <glyph glyph-name="R.ss02" horiz-adv-x="679" 
d="M530 0l-318 243h-40v-243h-79v680h255c157 0 262 -84 262 -218c0 -135 -105 -219 -262 -219h-20l316 -243h-114zM172 607v-291h173c112 0 186 55 186 146s-74 145 -186 145h-173z" />
    <glyph glyph-name="Racute.ss02" horiz-adv-x="679" 
d="M450 901l-94 -143h-71l80 143h85zM530 0l-318 243h-40v-243h-79v680h255c157 0 262 -84 262 -218c0 -135 -105 -219 -262 -219h-20l316 -243h-114zM172 607v-291h173c112 0 186 55 186 146s-74 145 -186 145h-173z" />
    <glyph glyph-name="Rcaron.ss02" horiz-adv-x="679" 
d="M363 755h-77l-123 145h74l88 -97l86 97h74zM530 0l-318 243h-40v-243h-79v680h255c157 0 262 -84 262 -218c0 -135 -105 -219 -262 -219h-20l316 -243h-114zM172 607v-291h173c112 0 186 55 186 146s-74 145 -186 145h-173z" />
    <glyph glyph-name="Rcommaaccent.ss02" horiz-adv-x="679" 
d="M328 243l316 -243h-114l-318 243h-40v-243h-79v680h255c157 0 262 -84 262 -218c0 -135 -105 -219 -262 -219h-20zM172 607v-291h173c112 0 186 55 186 146s-74 145 -186 145h-173zM329 -63c25 0 49 -19 49 -48c0 -21 -5 -28 -56 -128h-45l37 87c-24 6 -35 22 -35 42
c0 26 22 47 50 47z" />
    <glyph glyph-name="Q.ss03" horiz-adv-x="836" 
d="M418 692c196 0 354 -156 354 -352s-158 -352 -354 -352s-354 156 -354 352s158 352 354 352zM418 62c154 0 274 124 274 278s-120 278 -274 278s-274 -124 -274 -278s120 -278 274 -278zM386 -77l329 -63l-17 -76c-109 25 -217 52 -326 81z" />
    <glyph glyph-name="a" unicode="a" horiz-adv-x="618" 
d="M460 464h76v-464h-76v48c-41 -38 -97 -60 -163 -60c-133 0 -239 108 -239 244c0 135 106 244 239 244c66 0 122 -22 163 -60v48zM307 58c61 0 115 23 153 79v190c-38 56 -92 79 -153 79c-98 0 -173 -78 -173 -174s75 -174 173 -174z" />
    <glyph glyph-name="aacute" unicode="&#xe1;" horiz-adv-x="618" 
d="M443 696l-94 -143h-71l80 143h85zM460 464h76v-464h-76v48c-41 -38 -97 -60 -163 -60c-133 0 -239 108 -239 244c0 135 106 244 239 244c66 0 122 -22 163 -60v48zM307 58c61 0 115 23 153 79v190c-38 56 -92 79 -153 79c-98 0 -173 -78 -173 -174s75 -174 173 -174z" />
    <glyph glyph-name="abreve" unicode="&#x103;" horiz-adv-x="618" 
d="M318 540c-78 0 -144 48 -144 142h57c0 -63 44 -89 87 -89s87 26 87 89h58c0 -94 -67 -142 -145 -142zM460 464h76v-464h-76v48c-41 -38 -97 -60 -163 -60c-133 0 -239 108 -239 244c0 135 106 244 239 244c66 0 122 -22 163 -60v48zM307 58c61 0 115 23 153 79v190
c-38 56 -92 79 -153 79c-98 0 -173 -78 -173 -174s75 -174 173 -174z" />
    <glyph glyph-name="uni01CE" unicode="&#x1ce;" horiz-adv-x="618" 
d="M356 545h-77l-123 145h74l88 -97l86 97h74zM460 464h76v-464h-76v48c-41 -38 -97 -60 -163 -60c-133 0 -239 108 -239 244c0 135 106 244 239 244c66 0 122 -22 163 -60v48zM307 58c61 0 115 23 153 79v190c-38 56 -92 79 -153 79c-98 0 -173 -78 -173 -174
s75 -174 173 -174z" />
    <glyph glyph-name="acircumflex" unicode="&#xe2;" horiz-adv-x="618" 
d="M318 642l-88 -97h-74l123 145h77l122 -145h-74zM460 464h76v-464h-76v48c-41 -38 -97 -60 -163 -60c-133 0 -239 108 -239 244c0 135 106 244 239 244c66 0 122 -22 163 -60v48zM307 58c61 0 115 23 153 79v190c-38 56 -92 79 -153 79c-98 0 -173 -78 -173 -174
s75 -174 173 -174z" />
    <glyph glyph-name="adieresis" unicode="&#xe4;" horiz-adv-x="618" 
d="M223 572c-29 0 -53 22 -53 51s24 52 53 52c30 0 53 -23 53 -52s-23 -51 -53 -51zM414 572c-30 0 -53 22 -53 51s23 52 53 52c29 0 53 -23 53 -52s-24 -51 -53 -51zM460 464h76v-464h-76v48c-41 -38 -97 -60 -163 -60c-133 0 -239 108 -239 244c0 135 106 244 239 244
c66 0 122 -22 163 -60v48zM307 58c61 0 115 23 153 79v190c-38 56 -92 79 -153 79c-98 0 -173 -78 -173 -174s75 -174 173 -174z" />
    <glyph glyph-name="agrave" unicode="&#xe0;" horiz-adv-x="618" 
d="M363 553h-71l-94 143h85zM460 464h76v-464h-76v48c-41 -38 -97 -60 -163 -60c-133 0 -239 108 -239 244c0 135 106 244 239 244c66 0 122 -22 163 -60v48zM307 58c61 0 115 23 153 79v190c-38 56 -92 79 -153 79c-98 0 -173 -78 -173 -174s75 -174 173 -174z" />
    <glyph glyph-name="amacron" unicode="&#x101;" horiz-adv-x="618" 
d="M457 635v-63h-278v63h278zM460 464h76v-464h-76v48c-41 -38 -97 -60 -163 -60c-133 0 -239 108 -239 244c0 135 106 244 239 244c66 0 122 -22 163 -60v48zM307 58c61 0 115 23 153 79v190c-38 56 -92 79 -153 79c-98 0 -173 -78 -173 -174s75 -174 173 -174z" />
    <glyph glyph-name="aogonek" unicode="&#x105;" horiz-adv-x="618" 
d="M565 -122l8 -58c-11 -4 -33 -8 -53 -8c-78 0 -131 42 -131 106c0 43 29 76 71 98v32c-41 -38 -97 -60 -163 -60c-133 0 -239 108 -239 244c0 135 106 244 239 244c66 0 122 -22 163 -60v48h76v-460l1 -4c-48 -14 -82 -35 -82 -74c0 -32 27 -52 75 -52c13 0 23 2 35 4z
M307 58c61 0 115 23 153 79v190c-38 56 -92 79 -153 79c-98 0 -173 -78 -173 -174s75 -174 173 -174z" />
    <glyph glyph-name="aring" unicode="&#xe5;" horiz-adv-x="618" 
d="M318 544c-60 0 -102 41 -102 98s42 97 102 97c59 0 101 -40 101 -97s-42 -98 -101 -98zM318 697c-32 0 -56 -24 -56 -55c0 -32 24 -56 56 -56s55 24 55 56c0 31 -23 55 -55 55zM460 464h76v-464h-76v48c-41 -38 -97 -60 -163 -60c-133 0 -239 108 -239 244
c0 135 106 244 239 244c66 0 122 -22 163 -60v48zM307 58c61 0 115 23 153 79v190c-38 56 -92 79 -153 79c-98 0 -173 -78 -173 -174s75 -174 173 -174z" />
    <glyph glyph-name="atilde" unicode="&#xe3;" horiz-adv-x="618" 
d="M295 616c-37 24 -68 7 -68 -30h-62c0 102 92 121 148 86l42 -27c40 -27 69 -7 69 29h62c0 -101 -89 -124 -148 -86zM460 464h76v-464h-76v48c-41 -38 -97 -60 -163 -60c-133 0 -239 108 -239 244c0 135 106 244 239 244c66 0 122 -22 163 -60v48zM307 58
c61 0 115 23 153 79v190c-38 56 -92 79 -153 79c-98 0 -173 -78 -173 -174s75 -174 173 -174z" />
    <glyph glyph-name="ae" unicode="&#xe6;" horiz-adv-x="929" 
d="M642 476c149 0 242 -115 227 -267h-388c9 -86 68 -153 165 -153c59 0 104 21 124 60h85c-29 -80 -109 -128 -209 -128c-81 0 -148 35 -191 90c-52 -53 -126 -89 -213 -89c-115 0 -192 55 -192 146c0 81 63 126 177 126h178c0 84 -35 150 -133 150
c-64 0 -110 -33 -120 -82h-77c11 97 99 147 197 147c84 0 146 -34 179 -94c42 58 109 94 191 94zM642 410c-92 0 -149 -65 -160 -147h311c-4 92 -63 147 -151 147zM246 54c66 0 122 21 179 75c-10 22 -17 47 -19 73h-184c-67 0 -98 -27 -98 -65c0 -48 43 -83 122 -83z" />
    <glyph glyph-name="b" unicode="b" horiz-adv-x="618" 
d="M321 476c133 0 239 -108 239 -244c0 -135 -106 -244 -239 -244c-66 0 -122 22 -163 60v-48h-76v710h76v-294c41 38 97 60 163 60zM311 58c98 0 173 78 173 174s-75 174 -173 174c-61 0 -115 -23 -153 -79v-190c38 -56 92 -79 153 -79z" />
    <glyph glyph-name="c" unicode="c" horiz-adv-x="577" 
d="M301 58c72 0 126 39 140 100h79c-18 -101 -107 -170 -219 -170c-141 0 -243 107 -243 244s102 244 243 244c112 0 201 -69 219 -171h-79c-14 61 -68 101 -140 101c-101 0 -167 -78 -167 -174c0 -97 66 -174 167 -174z" />
    <glyph glyph-name="cacute" unicode="&#x107;" horiz-adv-x="577" 
d="M421 696l-94 -143h-71l80 143h85zM301 58c72 0 126 39 140 100h79c-18 -101 -107 -170 -219 -170c-141 0 -243 107 -243 244s102 244 243 244c112 0 201 -69 219 -171h-79c-14 61 -68 101 -140 101c-101 0 -167 -78 -167 -174c0 -97 66 -174 167 -174z" />
    <glyph glyph-name="ccaron" unicode="&#x10d;" horiz-adv-x="577" 
d="M334 545h-77l-123 145h74l88 -97l86 97h74zM301 58c72 0 126 39 140 100h79c-18 -101 -107 -170 -219 -170c-141 0 -243 107 -243 244s102 244 243 244c112 0 201 -69 219 -171h-79c-14 61 -68 101 -140 101c-101 0 -167 -78 -167 -174c0 -97 66 -174 167 -174z" />
    <glyph glyph-name="ccedilla" unicode="&#xe7;" horiz-adv-x="577" 
d="M301 58c72 0 126 39 140 100h79c-18 -101 -107 -170 -219 -170c-141 0 -243 107 -243 244s102 244 243 244c112 0 201 -69 219 -171h-79c-14 61 -68 101 -140 101c-101 0 -167 -78 -167 -174c0 -97 66 -174 167 -174zM213 -215l46 147h75l-55 -147h-66z" />
    <glyph glyph-name="cdotaccent" unicode="&#x10b;" horiz-adv-x="577" 
d="M296 572c-29 0 -53 22 -53 51s24 52 53 52c30 0 53 -23 53 -52s-23 -51 -53 -51zM301 58c72 0 126 39 140 100h79c-18 -101 -107 -170 -219 -170c-141 0 -243 107 -243 244s102 244 243 244c112 0 201 -69 219 -171h-79c-14 61 -68 101 -140 101
c-101 0 -167 -78 -167 -174c0 -97 66 -174 167 -174z" />
    <glyph glyph-name="d" unicode="d" horiz-adv-x="618" 
d="M460 710h76v-710h-76v48c-41 -38 -97 -60 -163 -60c-133 0 -239 109 -239 244c0 136 106 244 239 244c66 0 122 -22 163 -60v294zM307 58c61 0 115 23 153 79v190c-38 56 -92 79 -153 79c-98 0 -173 -78 -173 -174s75 -174 173 -174z" />
    <glyph glyph-name="eth" unicode="&#xf0;" horiz-adv-x="608" 
d="M386 605c100 -90 165 -220 165 -373c0 -140 -108 -246 -246 -246c-140 0 -247 106 -247 246c0 138 107 243 247 243c47 0 91 -16 127 -43c-27 57 -68 106 -118 147l-161 -60l-19 53l124 45c-36 22 -76 41 -119 57l80 33c41 -16 80 -36 116 -61l88 32l19 -52zM305 56
c97 0 169 78 169 176c0 96 -72 173 -169 173c-98 0 -171 -77 -171 -173c0 -98 73 -176 171 -176z" />
    <glyph glyph-name="dcaron" unicode="&#x10f;" horiz-adv-x="618" 
d="M460 416v294h76v-710h-76v48c-41 -38 -97 -60 -163 -60c-133 0 -239 109 -239 244c0 136 106 244 239 244c66 0 122 -22 163 -60zM634 710h78l-28 -187h-59zM307 58c61 0 115 23 153 79v190c-38 56 -92 79 -153 79c-98 0 -173 -78 -173 -174s75 -174 173 -174z" />
    <glyph glyph-name="dcroat" unicode="&#x111;" horiz-adv-x="618" 
d="M573 634v-63h-37v-571h-76v48c-41 -38 -97 -60 -163 -60c-133 0 -239 109 -239 244c0 136 106 244 239 244c66 0 122 -22 163 -60v155h-191v63h191v76h76v-76h37zM307 58c61 0 115 23 153 79v190c-38 56 -92 79 -153 79c-98 0 -173 -78 -173 -174s75 -174 173 -174z" />
    <glyph glyph-name="e" unicode="e" horiz-adv-x="583" 
d="M296 476c149 0 242 -115 227 -267h-388c9 -86 68 -153 165 -153c59 0 104 21 124 60h85c-29 -80 -109 -128 -209 -128c-143 0 -242 107 -242 244s98 244 238 244zM296 410c-92 0 -149 -65 -160 -147h311c-4 92 -63 147 -151 147z" />
    <glyph glyph-name="eacute" unicode="&#xe9;" horiz-adv-x="583" 
d="M421 696l-94 -143h-71l80 143h85zM296 476c149 0 242 -115 227 -267h-388c9 -86 68 -153 165 -153c59 0 104 21 124 60h85c-29 -80 -109 -128 -209 -128c-143 0 -242 107 -242 244s98 244 238 244zM296 410c-92 0 -149 -65 -160 -147h311c-4 92 -63 147 -151 147z" />
    <glyph glyph-name="ecaron" unicode="&#x11b;" horiz-adv-x="583" 
d="M334 545h-77l-123 145h74l88 -97l86 97h74zM296 476c149 0 242 -115 227 -267h-388c9 -86 68 -153 165 -153c59 0 104 21 124 60h85c-29 -80 -109 -128 -209 -128c-143 0 -242 107 -242 244s98 244 238 244zM296 410c-92 0 -149 -65 -160 -147h311
c-4 92 -63 147 -151 147z" />
    <glyph glyph-name="ecircumflex" unicode="&#xea;" horiz-adv-x="583" 
d="M296 642l-88 -97h-74l123 145h77l122 -145h-74zM296 476c149 0 242 -115 227 -267h-388c9 -86 68 -153 165 -153c59 0 104 21 124 60h85c-29 -80 -109 -128 -209 -128c-143 0 -242 107 -242 244s98 244 238 244zM296 410c-92 0 -149 -65 -160 -147h311
c-4 92 -63 147 -151 147z" />
    <glyph glyph-name="edieresis" unicode="&#xeb;" horiz-adv-x="583" 
d="M201 572c-29 0 -53 22 -53 51s24 52 53 52c30 0 53 -23 53 -52s-23 -51 -53 -51zM392 572c-30 0 -53 22 -53 51s23 52 53 52c29 0 53 -23 53 -52s-24 -51 -53 -51zM296 476c149 0 242 -115 227 -267h-388c9 -86 68 -153 165 -153c59 0 104 21 124 60h85
c-29 -80 -109 -128 -209 -128c-143 0 -242 107 -242 244s98 244 238 244zM296 410c-92 0 -149 -65 -160 -147h311c-4 92 -63 147 -151 147z" />
    <glyph glyph-name="edotaccent" unicode="&#x117;" horiz-adv-x="583" 
d="M296 572c-29 0 -53 22 -53 51s24 52 53 52c30 0 53 -23 53 -52s-23 -51 -53 -51zM296 476c149 0 242 -115 227 -267h-388c9 -86 68 -153 165 -153c59 0 104 21 124 60h85c-29 -80 -109 -128 -209 -128c-143 0 -242 107 -242 244s98 244 238 244zM296 410
c-92 0 -149 -65 -160 -147h311c-4 92 -63 147 -151 147z" />
    <glyph glyph-name="egrave" unicode="&#xe8;" horiz-adv-x="583" 
d="M341 553h-71l-94 143h85zM296 476c149 0 242 -115 227 -267h-388c9 -86 68 -153 165 -153c59 0 104 21 124 60h85c-29 -80 -109 -128 -209 -128c-143 0 -242 107 -242 244s98 244 238 244zM296 410c-92 0 -149 -65 -160 -147h311c-4 92 -63 147 -151 147z" />
    <glyph glyph-name="emacron" unicode="&#x113;" horiz-adv-x="583" 
d="M435 635v-63h-278v63h278zM296 476c149 0 242 -115 227 -267h-388c9 -86 68 -153 165 -153c59 0 104 21 124 60h85c-29 -80 -109 -128 -209 -128c-143 0 -242 107 -242 244s98 244 238 244zM296 410c-92 0 -149 -65 -160 -147h311c-4 92 -63 147 -151 147z" />
    <glyph glyph-name="eogonek" unicode="&#x119;" horiz-adv-x="583" 
d="M296 476c149 0 242 -115 227 -267h-388c9 -86 68 -153 165 -153c59 0 104 21 124 60h85c-13 -35 -35 -64 -64 -85c-37 -33 -52 -53 -52 -88c0 -36 27 -57 75 -57c13 0 23 1 36 4l7 -59c-11 -4 -33 -7 -53 -7c-78 0 -130 42 -130 106c0 22 6 43 18 61
c-15 -2 -30 -3 -46 -3c-143 0 -242 107 -242 244s98 244 238 244zM296 410c-92 0 -149 -65 -160 -147h311c-4 92 -63 147 -151 147z" />
    <glyph glyph-name="f" unicode="f" horiz-adv-x="405" 
d="M215 547v-83h186v-65h-186v-399h-76v399h-135v65h135v83c0 108 72 175 174 175c27 0 58 -4 92 -14l-11 -64c-25 7 -54 12 -73 12c-65 0 -106 -43 -106 -109z" />
    <glyph glyph-name="g" unicode="g" horiz-adv-x="618" 
d="M460 464h76v-487c0 -136 -93 -219 -231 -219c-128 0 -220 72 -236 175h78c13 -63 71 -106 158 -106c93 0 155 56 155 150v87c-43 -38 -101 -60 -168 -60c-133 0 -234 106 -234 234c0 137 101 238 234 238c67 0 125 -22 168 -60v48zM302 71c61 0 119 25 158 82v174
c-39 57 -97 82 -158 82c-98 0 -168 -73 -168 -171c0 -89 70 -167 168 -167z" />
    <glyph glyph-name="gbreve" unicode="&#x11f;" horiz-adv-x="618" 
d="M315 540c-78 0 -144 48 -144 142h57c0 -63 44 -89 87 -89s87 26 87 89h58c0 -94 -67 -142 -145 -142zM460 464h76v-487c0 -136 -93 -219 -231 -219c-128 0 -220 72 -236 175h78c13 -63 71 -106 158 -106c93 0 155 56 155 150v87c-43 -38 -101 -60 -168 -60
c-133 0 -234 106 -234 234c0 137 101 238 234 238c67 0 125 -22 168 -60v48zM302 71c61 0 119 25 158 82v174c-39 57 -97 82 -158 82c-98 0 -168 -73 -168 -171c0 -89 70 -167 168 -167z" />
    <glyph glyph-name="gcommaaccent" unicode="&#x123;" horiz-adv-x="620" 
d="M309 567c-25 0 -49 19 -49 48c0 21 5 28 56 128h45l-37 -87c24 -6 35 -22 35 -42c0 -26 -22 -47 -50 -47zM460 464h76v-487c0 -136 -93 -219 -231 -219c-128 0 -220 72 -236 175h78c13 -63 71 -106 158 -106c93 0 155 56 155 150v87c-43 -38 -101 -60 -168 -60
c-133 0 -234 106 -234 234c0 137 101 238 234 238c67 0 125 -22 168 -60v48zM302 71c61 0 119 25 158 82v174c-39 57 -97 82 -158 82c-98 0 -168 -73 -168 -171c0 -89 70 -167 168 -167z" />
    <glyph glyph-name="gdotaccent" unicode="&#x121;" horiz-adv-x="618" 
d="M315 572c-29 0 -53 22 -53 51s24 52 53 52c30 0 53 -23 53 -52s-23 -51 -53 -51zM460 464h76v-487c0 -136 -93 -219 -231 -219c-128 0 -220 72 -236 175h78c13 -63 71 -106 158 -106c93 0 155 56 155 150v87c-43 -38 -101 -60 -168 -60c-133 0 -234 106 -234 234
c0 137 101 238 234 238c67 0 125 -22 168 -60v48zM302 71c61 0 119 25 158 82v174c-39 57 -97 82 -158 82c-98 0 -168 -73 -168 -171c0 -89 70 -167 168 -167z" />
    <glyph glyph-name="h" unicode="h" horiz-adv-x="586" 
d="M324 476c118 0 199 -79 199 -210v-266h-76v262c0 94 -55 144 -137 144c-55 0 -112 -28 -152 -80v-326h-76v710h76v-298c43 41 100 64 166 64z" />
    <glyph glyph-name="hbar" unicode="&#x127;" horiz-adv-x="581" 
d="M324 476c118 0 199 -79 199 -210v-266h-76v262c0 94 -55 144 -137 144c-55 0 -112 -28 -152 -80v-326h-76v583h-53v56h53v71h76v-71h169v-56h-169v-171c43 41 100 64 166 64z" />
    <glyph glyph-name="i" unicode="i" horiz-adv-x="266" 
d="M133 588c-29 0 -51 22 -51 50c0 29 22 51 51 51s52 -22 52 -51c0 -28 -23 -50 -52 -50zM96 464h76v-464h-76v464z" />
    <glyph glyph-name="dotlessi" unicode="&#x131;" horiz-adv-x="267" 
d="M96 464h76v-464h-76v464z" />
    <glyph glyph-name="iacute" unicode="&#xed;" horiz-adv-x="267" 
d="M174 696h85l-94 -143h-71zM96 464h76v-464h-76v464z" />
    <glyph glyph-name="icircumflex" unicode="&#xee;" horiz-adv-x="267" 
d="M220 545l-86 97l-88 -97h-74l123 145h77l122 -145h-74zM96 464h76v-464h-76v464z" />
    <glyph glyph-name="idieresis" unicode="&#xef;" horiz-adv-x="267" 
d="M39 675c30 0 53 -23 53 -52s-23 -51 -53 -51c-29 0 -53 22 -53 51s24 52 53 52zM230 675c29 0 53 -23 53 -52s-24 -51 -53 -51c-30 0 -53 22 -53 51s23 52 53 52zM96 464h76v-464h-76v464z" />
    <glyph glyph-name="i.loclTRK" horiz-adv-x="266" 
d="M133 588c-29 0 -51 22 -51 50c0 29 22 51 51 51s52 -22 52 -51c0 -28 -23 -50 -52 -50zM96 464h76v-464h-76v464z" />
    <glyph glyph-name="igrave" unicode="&#xec;" horiz-adv-x="267" 
d="M99 696l80 -143h-71l-94 143h85zM96 464h76v-464h-76v464z" />
    <glyph glyph-name="ij" unicode="&#x133;" horiz-adv-x="524" 
d="M133 588c-29 0 -51 22 -51 50c0 29 22 51 51 51s52 -22 52 -51c0 -28 -23 -50 -52 -50zM391 588c-29 0 -52 22 -52 50c0 29 23 51 52 51s51 -22 51 -51c0 -28 -22 -50 -51 -50zM96 464h76v-464h-76v464zM429 464v-511c0 -132 -41 -194 -177 -195l-5 67
c79 3 106 33 106 119v520h76z" />
    <glyph glyph-name="imacron" unicode="&#x12b;" horiz-adv-x="267" 
d="M-5 635h278v-63h-278v63zM96 464h76v-464h-76v464z" />
    <glyph glyph-name="iogonek" unicode="&#x12f;" horiz-adv-x="266" 
d="M133 588c-29 0 -51 22 -51 50c0 29 22 51 51 51s52 -22 52 -51c0 -28 -23 -50 -52 -50zM195 -122l8 -58c-11 -4 -33 -8 -53 -8c-78 0 -131 42 -131 106c0 45 32 80 77 101v445h76v-464h-5c-48 -14 -82 -35 -82 -74c0 -32 27 -52 75 -52c13 0 23 2 35 4z" />
    <glyph glyph-name="j" unicode="j" horiz-adv-x="258" 
d="M125 588c-29 0 -52 22 -52 50c0 29 23 51 52 51s51 -22 51 -51c0 -28 -22 -50 -51 -50zM163 464v-511c0 -132 -41 -194 -177 -195l-5 67c79 3 106 33 106 119v520h76z" />
    <glyph glyph-name="k" unicode="k" horiz-adv-x="561" 
d="M444 0l-190 217l-96 -93v-124h-76v710h76v-486l251 240h98l-199 -194l235 -270h-99z" />
    <glyph glyph-name="kcommaaccent" unicode="&#x137;" horiz-adv-x="561" 
d="M308 270l235 -270h-99l-190 217l-96 -93v-124h-76v710h76v-486l251 240h98zM282 -63c25 0 49 -19 49 -48c0 -21 -5 -28 -56 -128h-45l37 87c-24 6 -35 22 -35 42c0 26 22 47 50 47z" />
    <glyph glyph-name="l" unicode="l" horiz-adv-x="239" 
d="M82 710h76v-710h-76v710z" />
    <glyph glyph-name="lacute" unicode="&#x13a;" horiz-adv-x="239" 
d="M169 942h85l-94 -143h-71zM82 710h76v-710h-76v710z" />
    <glyph glyph-name="lcaron" unicode="&#x13e;" horiz-adv-x="239" 
d="M82 710h76v-710h-76v710zM232 710h78l-28 -187h-59z" />
    <glyph glyph-name="lcommaaccent" unicode="&#x13c;" horiz-adv-x="239" 
d="M82 710h76v-710h-76v710zM64 -239l37 87c-24 6 -35 22 -35 42c0 26 22 47 50 47c25 0 49 -19 49 -48c0 -21 -5 -28 -56 -128h-45z" />
    <glyph glyph-name="ldot" unicode="&#x140;" horiz-adv-x="319" 
d="M82 710h76v-710h-76v710zM253 268c-29 0 -53 22 -53 51s24 52 53 52c30 0 53 -23 53 -52s-23 -51 -53 -51z" />
    <glyph glyph-name="lslash" unicode="&#x142;" horiz-adv-x="239" 
d="M229 456v-79l-71 -35v-342h-76v305l-71 -35v79l71 35v326h76v-289z" />
    <glyph glyph-name="m" unicode="m" horiz-adv-x="903" 
d="M645 476c118 0 195 -69 195 -202v-274h-76v274c0 92 -48 132 -124 132c-56 0 -108 -23 -145 -79c3 -15 4 -31 4 -49v-278h-76v278c0 91 -49 128 -120 128c-58 0 -109 -24 -145 -78v-328h-76v464h76v-50c38 39 86 62 153 62c71 0 126 -26 158 -77c45 49 102 77 176 77z
" />
    <glyph glyph-name="n" unicode="n" horiz-adv-x="586" 
d="M324 476c118 0 199 -79 199 -210v-266h-76v262c0 94 -55 144 -137 144c-55 0 -112 -28 -152 -80v-326h-76v464h76v-52c43 41 100 64 166 64z" />
    <glyph glyph-name="nacute" unicode="&#x144;" horiz-adv-x="586" 
d="M426 696l-94 -143h-71l80 143h85zM324 476c118 0 199 -79 199 -210v-266h-76v262c0 94 -55 144 -137 144c-55 0 -112 -28 -152 -80v-326h-76v464h76v-52c43 41 100 64 166 64z" />
    <glyph glyph-name="ncaron" unicode="&#x148;" horiz-adv-x="586" 
d="M339 545h-77l-123 145h74l88 -97l86 97h74zM324 476c118 0 199 -79 199 -210v-266h-76v262c0 94 -55 144 -137 144c-55 0 -112 -28 -152 -80v-326h-76v464h76v-52c43 41 100 64 166 64z" />
    <glyph glyph-name="ncommaaccent" unicode="&#x146;" horiz-adv-x="586" 
d="M324 476c118 0 199 -79 199 -210v-266h-76v262c0 94 -55 144 -137 144c-55 0 -112 -28 -152 -80v-326h-76v464h76v-52c43 41 100 64 166 64zM302 -63c25 0 49 -19 49 -48c0 -21 -5 -28 -56 -128h-45l37 87c-24 6 -35 22 -35 42c0 26 22 47 50 47z" />
    <glyph glyph-name="ntilde" unicode="&#xf1;" horiz-adv-x="586" 
d="M278 616c-37 24 -68 7 -68 -30h-62c0 102 92 121 148 86l42 -27c40 -27 69 -7 69 29h62c0 -101 -89 -124 -148 -86zM324 476c118 0 199 -79 199 -210v-266h-76v262c0 94 -55 144 -137 144c-55 0 -112 -28 -152 -80v-326h-76v464h76v-52c43 41 100 64 166 64z" />
    <glyph glyph-name="o" unicode="o" horiz-adv-x="608" 
d="M305 476c141 0 246 -104 246 -244s-105 -244 -246 -244c-142 0 -247 104 -247 244s105 244 247 244zM305 58c97 0 169 74 169 174s-72 174 -169 174c-98 0 -171 -74 -171 -174s73 -174 171 -174z" />
    <glyph glyph-name="oacute" unicode="&#xf3;" horiz-adv-x="608" 
d="M345 696h85l-94 -143h-71zM305 476c141 0 246 -104 246 -244s-105 -244 -246 -244c-142 0 -247 104 -247 244s105 244 247 244zM305 58c97 0 169 74 169 174s-72 174 -169 174c-98 0 -171 -74 -171 -174s73 -174 171 -174z" />
    <glyph glyph-name="ocircumflex" unicode="&#xf4;" horiz-adv-x="608" 
d="M391 545l-86 97l-88 -97h-74l123 145h77l122 -145h-74zM305 476c141 0 246 -104 246 -244s-105 -244 -246 -244c-142 0 -247 104 -247 244s105 244 247 244zM305 58c97 0 169 74 169 174s-72 174 -169 174c-98 0 -171 -74 -171 -174s73 -174 171 -174z" />
    <glyph glyph-name="odieresis" unicode="&#xf6;" horiz-adv-x="608" 
d="M210 675c30 0 53 -23 53 -52s-23 -51 -53 -51c-29 0 -53 22 -53 51s24 52 53 52zM401 675c29 0 53 -23 53 -52s-24 -51 -53 -51c-30 0 -53 22 -53 51s23 52 53 52zM305 476c141 0 246 -104 246 -244s-105 -244 -246 -244c-142 0 -247 104 -247 244s105 244 247 244z
M305 58c97 0 169 74 169 174s-72 174 -169 174c-98 0 -171 -74 -171 -174s73 -174 171 -174z" />
    <glyph glyph-name="ograve" unicode="&#xf2;" horiz-adv-x="608" 
d="M270 696l80 -143h-71l-94 143h85zM305 476c141 0 246 -104 246 -244s-105 -244 -246 -244c-142 0 -247 104 -247 244s105 244 247 244zM305 58c97 0 169 74 169 174s-72 174 -169 174c-98 0 -171 -74 -171 -174s73 -174 171 -174z" />
    <glyph glyph-name="ohungarumlaut" unicode="&#x151;" horiz-adv-x="608" 
d="M265 696h80l-83 -143h-66zM402 696h80l-84 -143h-65zM305 476c141 0 246 -104 246 -244s-105 -244 -246 -244c-142 0 -247 104 -247 244s105 244 247 244zM305 58c97 0 169 74 169 174s-72 174 -169 174c-98 0 -171 -74 -171 -174s73 -174 171 -174z" />
    <glyph glyph-name="omacron" unicode="&#x14d;" horiz-adv-x="608" 
d="M166 635h278v-63h-278v63zM305 476c141 0 246 -104 246 -244s-105 -244 -246 -244c-142 0 -247 104 -247 244s105 244 247 244zM305 58c97 0 169 74 169 174s-72 174 -169 174c-98 0 -171 -74 -171 -174s73 -174 171 -174z" />
    <glyph glyph-name="oslash" unicode="&#xf8;" horiz-adv-x="608" 
d="M481 407c44 -44 70 -105 70 -175c0 -140 -105 -244 -246 -244c-53 0 -101 15 -140 40l-33 -39l-42 36l32 39c-40 43 -64 101 -64 168c0 140 105 244 247 244c50 0 95 -13 132 -36l36 43l42 -35zM134 232c0 -43 13 -81 37 -111l219 263c-24 14 -53 22 -85 22
c-98 0 -171 -74 -171 -174zM305 58c97 0 169 74 169 174c0 46 -15 87 -41 117l-221 -265c26 -17 58 -26 93 -26z" />
    <glyph glyph-name="otilde" unicode="&#xf5;" horiz-adv-x="608" 
d="M473 674c0 -101 -89 -124 -148 -86l-43 28c-37 24 -68 7 -68 -30h-62c0 102 92 121 148 86l42 -27c40 -27 69 -7 69 29h62zM305 476c141 0 246 -104 246 -244s-105 -244 -246 -244c-142 0 -247 104 -247 244s105 244 247 244zM305 58c97 0 169 74 169 174
s-72 174 -169 174c-98 0 -171 -74 -171 -174s73 -174 171 -174z" />
    <glyph glyph-name="oe" unicode="&#x153;" horiz-adv-x="1002" 
d="M715 476c149 0 242 -115 227 -267h-388c9 -86 68 -153 165 -153c59 0 104 21 124 60h85c-29 -80 -109 -128 -209 -128c-91 0 -164 43 -205 110c-43 -67 -119 -110 -209 -110c-142 0 -247 104 -247 244s105 244 247 244c90 0 166 -43 208 -110c41 67 113 110 202 110z
M715 410c-92 0 -149 -65 -160 -147h311c-4 92 -63 147 -151 147zM305 58c97 0 169 74 169 174s-72 174 -169 174c-98 0 -171 -74 -171 -174s73 -174 171 -174z" />
    <glyph glyph-name="p" unicode="p" horiz-adv-x="618" 
d="M321 475c133 0 239 -108 239 -243c0 -136 -106 -243 -239 -243c-66 0 -122 22 -163 60v-281h-76v696h76v-49c41 38 97 60 163 60zM311 56c98 0 173 80 173 176s-75 176 -173 176c-61 0 -115 -25 -153 -81v-190c38 -56 92 -81 153 -81z" />
    <glyph glyph-name="thorn" unicode="&#xfe;" horiz-adv-x="618" 
d="M321 475c133 0 239 -108 239 -243c0 -136 -106 -243 -239 -243c-66 0 -122 22 -163 60v-281h-76v942h76v-295c41 38 97 60 163 60zM311 56c98 0 173 80 173 176s-75 176 -173 176c-61 0 -115 -25 -153 -81v-190c38 -56 92 -81 153 -81z" />
    <glyph glyph-name="q" unicode="q" horiz-adv-x="618" 
d="M460 464h76v-696h-76v281c-41 -38 -97 -60 -163 -60c-133 0 -239 107 -239 243c0 135 106 243 239 243c66 0 122 -22 163 -60v49zM307 56c61 0 115 25 153 81v190c-38 56 -92 81 -153 81c-98 0 -173 -80 -173 -176s75 -176 173 -176z" />
    <glyph glyph-name="r" unicode="r" horiz-adv-x="364" 
d="M158 388c43 55 105 87 179 87v-72c-76 -2 -138 -37 -179 -101v-302h-76v464h76v-76z" />
    <glyph glyph-name="racute" unicode="&#x155;" horiz-adv-x="364" 
d="M326 696l-94 -143h-71l80 143h85zM158 388c43 55 105 87 179 87v-72c-76 -2 -138 -37 -179 -101v-302h-76v464h76v-76z" />
    <glyph glyph-name="rcaron" unicode="&#x159;" horiz-adv-x="364" 
d="M239 545h-77l-123 145h74l88 -97l86 97h74zM158 388c43 55 105 87 179 87v-72c-76 -2 -138 -37 -179 -101v-302h-76v464h76v-76z" />
    <glyph glyph-name="rcommaaccent" unicode="&#x157;" horiz-adv-x="364" 
d="M158 388c43 55 105 87 179 87v-72c-76 -2 -138 -37 -179 -101v-302h-76v464h76v-76zM117 -63c25 0 49 -19 49 -48c0 -21 -5 -28 -56 -128h-45l37 87c-24 6 -35 22 -35 42c0 26 22 47 50 47z" />
    <glyph glyph-name="s" unicode="s" horiz-adv-x="525" 
d="M121 146c14 -62 62 -95 147 -95c72 0 121 27 121 74c0 39 -31 62 -76 70l-105 17c-76 13 -138 47 -138 126c0 86 76 138 188 138c97 0 193 -37 202 -147h-71c-8 58 -57 85 -131 85c-70 0 -112 -27 -112 -69c0 -34 23 -59 86 -70l92 -15c67 -11 138 -41 138 -130
c0 -91 -82 -142 -196 -142c-118 0 -202 49 -216 158h71z" />
    <glyph glyph-name="sacute" unicode="&#x15b;" horiz-adv-x="525" 
d="M303 696h85l-94 -143h-71zM121 146c14 -62 62 -95 147 -95c72 0 121 27 121 74c0 39 -31 62 -76 70l-105 17c-76 13 -138 47 -138 126c0 86 76 138 188 138c97 0 193 -37 202 -147h-71c-8 58 -57 85 -131 85c-70 0 -112 -27 -112 -69c0 -34 23 -59 86 -70l92 -15
c67 -11 138 -41 138 -130c0 -91 -82 -142 -196 -142c-118 0 -202 49 -216 158h71z" />
    <glyph glyph-name="scaron" unicode="&#x161;" horiz-adv-x="525" 
d="M349 690h74l-122 -145h-77l-123 145h74l88 -97zM121 146c14 -62 62 -95 147 -95c72 0 121 27 121 74c0 39 -31 62 -76 70l-105 17c-76 13 -138 47 -138 126c0 86 76 138 188 138c97 0 193 -37 202 -147h-71c-8 58 -57 85 -131 85c-70 0 -112 -27 -112 -69
c0 -34 23 -59 86 -70l92 -15c67 -11 138 -41 138 -130c0 -91 -82 -142 -196 -142c-118 0 -202 49 -216 158h71z" />
    <glyph glyph-name="scedilla" unicode="&#x15f;" horiz-adv-x="525" 
d="M121 146c14 -62 62 -95 147 -95c72 0 121 27 121 74c0 39 -31 62 -76 70l-105 17c-76 13 -138 47 -138 126c0 86 76 138 188 138c97 0 193 -37 202 -147h-71c-8 58 -57 85 -131 85c-70 0 -112 -27 -112 -69c0 -34 23 -59 86 -70l92 -15c67 -11 138 -41 138 -130
c0 -91 -82 -142 -196 -142c-118 0 -202 49 -216 158h71zM306 -68l-55 -147h-66l46 147h75z" />
    <glyph glyph-name="scommaaccent" unicode="&#x219;" horiz-adv-x="525" 
d="M121 146c14 -62 62 -95 147 -95c72 0 121 27 121 74c0 39 -31 62 -76 70l-105 17c-76 13 -138 47 -138 126c0 86 76 138 188 138c97 0 193 -37 202 -147h-71c-8 58 -57 85 -131 85c-70 0 -112 -27 -112 -69c0 -34 23 -59 86 -70l92 -15c67 -11 138 -41 138 -130
c0 -91 -82 -142 -196 -142c-118 0 -202 49 -216 158h71zM193 -239l37 87c-24 6 -35 22 -35 42c0 26 22 47 50 47c25 0 49 -19 49 -48c0 -21 -5 -28 -56 -128h-45z" />
    <glyph glyph-name="germandbls" unicode="&#xdf;" horiz-adv-x="621" 
d="M424 360c95 -19 154 -76 154 -171c0 -116 -87 -194 -243 -194c-21 0 -44 1 -70 5v65c25 -3 49 -4 67 -4c117 0 172 56 172 130c0 81 -66 121 -154 121h-48v57c102 12 147 77 147 138c0 62 -43 117 -133 118c-95 2 -163 -60 -163 -181v-444h-76v444c0 159 95 248 236 248
c132 0 210 -77 210 -182c0 -65 -31 -119 -99 -150z" />
    <glyph glyph-name="t" unicode="t" horiz-adv-x="433" 
d="M380 75l11 -70c-38 -13 -70 -17 -98 -17c-114 0 -169 63 -169 184v227h-121v65h121v171h76v-171h175v-65h-175v-227c0 -80 34 -113 100 -113c26 0 55 7 80 16z" />
    <glyph glyph-name="tcaron" unicode="&#x165;" horiz-adv-x="433" 
d="M350 712l-28 -187h-59l9 187h78zM380 75l11 -70c-38 -13 -70 -17 -98 -17c-114 0 -169 63 -169 184v227h-121v65h121v171h76v-171h175v-65h-175v-227c0 -80 34 -113 100 -113c26 0 55 7 80 16z" />
    <glyph glyph-name="uni0163" unicode="&#x163;" horiz-adv-x="433" 
d="M391 5c-38 -13 -70 -17 -98 -17c-114 0 -169 63 -169 184v227h-121v65h121v171h76v-171h175v-65h-175v-227c0 -80 34 -113 100 -113c26 0 55 7 80 16zM181 -215l46 147h75l-55 -147h-66z" />
    <glyph glyph-name="uni021B" unicode="&#x21b;" horiz-adv-x="433" 
d="M380 75l11 -70c-38 -13 -70 -17 -98 -17c-114 0 -169 63 -169 184v227h-121v65h121v171h76v-171h175v-65h-175v-227c0 -80 34 -113 100 -113c26 0 55 7 80 16zM241 -63c25 0 49 -19 49 -48c0 -21 -5 -28 -56 -128h-45l37 87c-24 6 -35 22 -35 42c0 26 22 47 50 47z" />
    <glyph glyph-name="u" unicode="u" horiz-adv-x="586" 
d="M428 464h76v-464h-76v53c-43 -41 -100 -65 -166 -65c-118 0 -199 81 -199 212v264h76v-260c0 -94 55 -146 137 -146c55 0 112 29 152 82v324z" />
    <glyph glyph-name="uacute" unicode="&#xfa;" horiz-adv-x="586" 
d="M413 696l-94 -143h-71l80 143h85zM428 464h76v-464h-76v53c-43 -41 -100 -65 -166 -65c-118 0 -199 81 -199 212v264h76v-260c0 -94 55 -146 137 -146c55 0 112 29 152 82v324z" />
    <glyph glyph-name="ucircumflex" unicode="&#xfb;" horiz-adv-x="586" 
d="M288 642l-88 -97h-74l123 145h77l122 -145h-74zM428 464h76v-464h-76v53c-43 -41 -100 -65 -166 -65c-118 0 -199 81 -199 212v264h76v-260c0 -94 55 -146 137 -146c55 0 112 29 152 82v324z" />
    <glyph glyph-name="udieresis" unicode="&#xfc;" horiz-adv-x="586" 
d="M193 572c-29 0 -53 22 -53 51s24 52 53 52c30 0 53 -23 53 -52s-23 -51 -53 -51zM384 572c-30 0 -53 22 -53 51s23 52 53 52c29 0 53 -23 53 -52s-24 -51 -53 -51zM428 464h76v-464h-76v53c-43 -41 -100 -65 -166 -65c-118 0 -199 81 -199 212v264h76v-260
c0 -94 55 -146 137 -146c55 0 112 29 152 82v324z" />
    <glyph glyph-name="ugrave" unicode="&#xf9;" horiz-adv-x="586" 
d="M333 553h-71l-94 143h85zM428 464h76v-464h-76v53c-43 -41 -100 -65 -166 -65c-118 0 -199 81 -199 212v264h76v-260c0 -94 55 -146 137 -146c55 0 112 29 152 82v324z" />
    <glyph glyph-name="uhungarumlaut" unicode="&#x171;" horiz-adv-x="586" 
d="M328 696l-83 -143h-66l69 143h80zM381 553h-65l69 143h80zM428 464h76v-464h-76v53c-43 -41 -100 -65 -166 -65c-118 0 -199 81 -199 212v264h76v-260c0 -94 55 -146 137 -146c55 0 112 29 152 82v324z" />
    <glyph glyph-name="umacron" unicode="&#x16b;" horiz-adv-x="586" 
d="M427 635v-63h-278v63h278zM428 464h76v-464h-76v53c-43 -41 -100 -65 -166 -65c-118 0 -199 81 -199 212v264h76v-260c0 -94 55 -146 137 -146c55 0 112 29 152 82v324z" />
    <glyph glyph-name="uogonek" unicode="&#x173;" horiz-adv-x="586" 
d="M533 -122l8 -58c-11 -4 -33 -8 -53 -8c-78 0 -131 42 -131 106c0 43 29 76 71 98v37c-43 -41 -100 -65 -166 -65c-118 0 -199 81 -199 212v264h76v-260c0 -94 55 -146 137 -146c55 0 112 29 152 82v324h76v-460l1 -4c-48 -14 -82 -35 -82 -74c0 -32 27 -52 75 -52
c13 0 23 2 35 4z" />
    <glyph glyph-name="uring" unicode="&#x16f;" horiz-adv-x="586" 
d="M288 544c-60 0 -102 41 -102 98s42 97 102 97c59 0 101 -40 101 -97s-42 -98 -101 -98zM288 697c-32 0 -56 -24 -56 -55c0 -32 24 -56 56 -56s55 24 55 56c0 31 -23 55 -55 55zM428 464h76v-464h-76v53c-43 -41 -100 -65 -166 -65c-118 0 -199 81 -199 212v264h76v-260
c0 -94 55 -146 137 -146c55 0 112 29 152 82v324z" />
    <glyph glyph-name="v" unicode="v" horiz-adv-x="574" 
d="M460 464h81l-219 -464h-70l-219 464h81l173 -368z" />
    <glyph glyph-name="w" unicode="w" horiz-adv-x="782" 
d="M667 464h82l-169 -464h-69l-120 355l-120 -355h-69l-169 464h82l122 -349l121 349h66l121 -348z" />
    <glyph glyph-name="wacute" unicode="&#x1e83;" horiz-adv-x="782" 
d="M516 696l-94 -143h-71l80 143h85zM667 464h82l-169 -464h-69l-120 355l-120 -355h-69l-169 464h82l122 -349l121 349h66l121 -348z" />
    <glyph glyph-name="wcircumflex" unicode="&#x175;" horiz-adv-x="782" 
d="M391 642l-88 -97h-74l123 145h77l122 -145h-74zM667 464h82l-169 -464h-69l-120 355l-120 -355h-69l-169 464h82l122 -349l121 349h66l121 -348z" />
    <glyph glyph-name="wdieresis" unicode="&#x1e85;" horiz-adv-x="782" 
d="M296 572c-29 0 -53 22 -53 51s24 52 53 52c30 0 53 -23 53 -52s-23 -51 -53 -51zM487 572c-30 0 -53 22 -53 51s23 52 53 52c29 0 53 -23 53 -52s-24 -51 -53 -51zM667 464h82l-169 -464h-69l-120 355l-120 -355h-69l-169 464h82l122 -349l121 349h66l121 -348z" />
    <glyph glyph-name="wgrave" unicode="&#x1e81;" horiz-adv-x="782" 
d="M436 553h-71l-94 143h85zM667 464h82l-169 -464h-69l-120 355l-120 -355h-69l-169 464h82l122 -349l121 349h66l121 -348z" />
    <glyph glyph-name="x" unicode="x" horiz-adv-x="538" 
d="M508 0h-92l-146 180l-148 -180h-92l189 232l-1 1l-185 231h94l142 -175l143 175h93l-185 -231z" />
    <glyph glyph-name="y" unicode="y" horiz-adv-x="602" 
d="M489 464h81l-314 -695h-81l97 215l-239 480h82l194 -399z" />
    <glyph glyph-name="yacute" unicode="&#xfd;" horiz-adv-x="602" 
d="M431 696l-94 -143h-71l80 143h85zM489 464h81l-314 -695h-81l97 215l-239 480h82l194 -399z" />
    <glyph glyph-name="ycircumflex" unicode="&#x177;" horiz-adv-x="602" 
d="M306 642l-88 -97h-74l123 145h77l122 -145h-74zM489 464h81l-314 -695h-81l97 215l-239 480h82l194 -399z" />
    <glyph glyph-name="ydieresis" unicode="&#xff;" horiz-adv-x="602" 
d="M211 572c-29 0 -53 22 -53 51s24 52 53 52c30 0 53 -23 53 -52s-23 -51 -53 -51zM402 572c-30 0 -53 22 -53 51s23 52 53 52c29 0 53 -23 53 -52s-24 -51 -53 -51zM489 464h81l-314 -695h-81l97 215l-239 480h82l194 -399z" />
    <glyph glyph-name="ygrave" unicode="&#x1ef3;" horiz-adv-x="602" 
d="M351 553h-71l-94 143h85zM489 464h81l-314 -695h-81l97 215l-239 480h82l194 -399z" />
    <glyph glyph-name="z" unicode="z" horiz-adv-x="494" 
d="M448 464v-44l-289 -355h289v-65h-402v39l292 360h-282v65h392z" />
    <glyph glyph-name="zacute" unicode="&#x17a;" horiz-adv-x="494" 
d="M372 696l-94 -143h-71l80 143h85zM448 464v-44l-289 -355h289v-65h-402v39l292 360h-282v65h392z" />
    <glyph glyph-name="zcaron" unicode="&#x17e;" horiz-adv-x="494" 
d="M285 545h-77l-123 145h74l88 -97l86 97h74zM448 464v-44l-289 -355h289v-65h-402v39l292 360h-282v65h392z" />
    <glyph glyph-name="zdotaccent" unicode="&#x17c;" horiz-adv-x="494" 
d="M247 572c-29 0 -53 22 -53 51s24 52 53 52c30 0 53 -23 53 -52s-23 -51 -53 -51zM448 464v-44l-289 -355h289v-65h-402v39l292 360h-282v65h392z" />
    <glyph glyph-name="germandbls.case" horiz-adv-x="725" 
d="M453 392c129 -1 220 -78 220 -195c0 -124 -101 -211 -253 -211c-37 0 -86 5 -129 17v71c45 -14 86 -19 121 -19c109 0 181 56 181 139c0 79 -68 132 -169 132h-77v37l196 244h-213c-97 0 -161 -63 -161 -157v-450h-79v447c0 140 96 233 240 233h319v-49z" />
    <glyph glyph-name="l.ss01" horiz-adv-x="358" 
d="M158 710v-569c0 -57 25 -84 73 -84c21 0 51 6 76 14l11 -68c-38 -11 -69 -17 -98 -17c-89 0 -138 51 -138 150v574h76z" />
    <glyph glyph-name="lacute.ss01" horiz-adv-x="358" 
d="M164 942h85l-94 -143h-71zM158 710v-569c0 -57 25 -84 73 -84c21 0 51 6 76 14l11 -68c-38 -11 -69 -17 -98 -17c-89 0 -138 51 -138 150v574h76z" />
    <glyph glyph-name="lcaron.ss01" horiz-adv-x="358" 
d="M158 710v-569c0 -57 25 -84 73 -84c21 0 51 6 76 14l11 -68c-38 -11 -69 -17 -98 -17c-89 0 -138 51 -138 150v574h76zM242 710h78l-28 -187h-59z" />
    <glyph glyph-name="lcommaaccent.ss01" horiz-adv-x="358" 
d="M158 710v-569c0 -57 25 -84 73 -84c21 0 51 6 76 14l11 -68c-38 -11 -69 -17 -98 -17c-89 0 -138 51 -138 150v574h76zM141 -239l37 87c-24 6 -35 22 -35 42c0 26 22 47 50 47c25 0 49 -19 49 -48c0 -21 -5 -28 -56 -128h-45z" />
    <glyph glyph-name="ldot.ss01" horiz-adv-x="383" 
d="M158 710v-569c0 -57 25 -84 73 -84c21 0 51 6 76 14l11 -68c-38 -11 -69 -17 -98 -17c-89 0 -138 51 -138 150v574h76zM294 268c-29 0 -53 22 -53 51s24 52 53 52c30 0 53 -23 53 -52s-23 -51 -53 -51z" />
    <glyph glyph-name="lslash.ss01" horiz-adv-x="363" 
d="M307 71l11 -68c-38 -11 -69 -17 -98 -17c-89 0 -138 51 -138 150v165l-64 -31v79l64 31v330h76v-293l86 42v-79l-86 -42v-197c0 -57 25 -84 73 -84c21 0 51 6 76 14z" />
    <glyph glyph-name="y.ss04" horiz-adv-x="596" 
d="M439 464h76v-487c0 -136 -91 -219 -224 -219c-123 0 -213 73 -228 175h78c12 -62 67 -106 150 -106c88 0 148 56 148 150v90c-44 -42 -101 -65 -163 -65c-123 0 -202 80 -202 211v251h76v-247c0 -94 53 -146 140 -146c54 0 110 29 149 82v311z" />
    <glyph glyph-name="yacute.ss04" horiz-adv-x="596" 
d="M421 696l-94 -143h-71l80 143h85zM439 464h76v-487c0 -136 -91 -219 -224 -219c-123 0 -213 73 -228 175h78c12 -62 67 -106 150 -106c88 0 148 56 148 150v90c-44 -42 -101 -65 -163 -65c-123 0 -202 80 -202 211v251h76v-247c0 -94 53 -146 140 -146
c54 0 110 29 149 82v311z" />
    <glyph glyph-name="ycircumflex.ss04" horiz-adv-x="596" 
d="M296 642l-88 -97h-74l123 145h77l122 -145h-74zM439 464h76v-487c0 -136 -91 -219 -224 -219c-123 0 -213 73 -228 175h78c12 -62 67 -106 150 -106c88 0 148 56 148 150v90c-44 -42 -101 -65 -163 -65c-123 0 -202 80 -202 211v251h76v-247c0 -94 53 -146 140 -146
c54 0 110 29 149 82v311z" />
    <glyph glyph-name="ydieresis.ss04" horiz-adv-x="596" 
d="M201 572c-29 0 -53 22 -53 51s24 52 53 52c30 0 53 -23 53 -52s-23 -51 -53 -51zM392 572c-30 0 -53 22 -53 51s23 52 53 52c29 0 53 -23 53 -52s-24 -51 -53 -51zM439 464h76v-487c0 -136 -91 -219 -224 -219c-123 0 -213 73 -228 175h78c12 -62 67 -106 150 -106
c88 0 148 56 148 150v90c-44 -42 -101 -65 -163 -65c-123 0 -202 80 -202 211v251h76v-247c0 -94 53 -146 140 -146c54 0 110 29 149 82v311z" />
    <glyph glyph-name="ygrave.ss04" horiz-adv-x="596" 
d="M341 553h-71l-94 143h85zM439 464h76v-487c0 -136 -91 -219 -224 -219c-123 0 -213 73 -228 175h78c12 -62 67 -106 150 -106c88 0 148 56 148 150v90c-44 -42 -101 -65 -163 -65c-123 0 -202 80 -202 211v251h76v-247c0 -94 53 -146 140 -146c54 0 110 29 149 82v311z
" />
    <glyph glyph-name="a.ss06" horiz-adv-x="543" 
d="M281 476c117 0 199 -60 199 -172v-304h-75v46c-45 -33 -100 -58 -168 -58c-115 0 -187 56 -187 147c0 81 63 136 172 136h183v33c0 65 -46 106 -124 106c-70 0 -124 -29 -134 -93h-77c11 112 107 159 211 159zM246 53c58 0 107 17 159 59v100h-185c-67 0 -96 -38 -96 -76
c0 -48 43 -83 122 -83z" />
    <glyph glyph-name="aacute.ss06" horiz-adv-x="543" 
d="M406 696l-94 -143h-71l80 143h85zM281 476c117 0 199 -60 199 -172v-304h-75v46c-45 -33 -100 -58 -168 -58c-115 0 -187 56 -187 147c0 81 63 136 172 136h183v33c0 65 -46 106 -124 106c-70 0 -124 -29 -134 -93h-77c11 112 107 159 211 159zM246 53
c58 0 107 17 159 59v100h-185c-67 0 -96 -38 -96 -76c0 -48 43 -83 122 -83z" />
    <glyph glyph-name="abreve.ss06" horiz-adv-x="543" 
d="M281 540c-78 0 -144 48 -144 142h57c0 -63 44 -89 87 -89s87 26 87 89h58c0 -94 -67 -142 -145 -142zM281 476c117 0 199 -60 199 -172v-304h-75v46c-45 -33 -100 -58 -168 -58c-115 0 -187 56 -187 147c0 81 63 136 172 136h183v33c0 65 -46 106 -124 106
c-70 0 -124 -29 -134 -93h-77c11 112 107 159 211 159zM246 53c58 0 107 17 159 59v100h-185c-67 0 -96 -38 -96 -76c0 -48 43 -83 122 -83z" />
    <glyph glyph-name="uni01CE.ss06" horiz-adv-x="543" 
d="M319 545h-77l-123 145h74l88 -97l86 97h74zM281 476c117 0 199 -60 199 -172v-304h-75v46c-45 -33 -100 -58 -168 -58c-115 0 -187 56 -187 147c0 81 63 136 172 136h183v33c0 65 -46 106 -124 106c-70 0 -124 -29 -134 -93h-77c11 112 107 159 211 159zM246 53
c58 0 107 17 159 59v100h-185c-67 0 -96 -38 -96 -76c0 -48 43 -83 122 -83z" />
    <glyph glyph-name="acircumflex.ss06" horiz-adv-x="543" 
d="M281 642l-88 -97h-74l123 145h77l122 -145h-74zM281 476c117 0 199 -60 199 -172v-304h-75v46c-45 -33 -100 -58 -168 -58c-115 0 -187 56 -187 147c0 81 63 136 172 136h183v33c0 65 -46 106 -124 106c-70 0 -124 -29 -134 -93h-77c11 112 107 159 211 159zM246 53
c58 0 107 17 159 59v100h-185c-67 0 -96 -38 -96 -76c0 -48 43 -83 122 -83z" />
    <glyph glyph-name="adieresis.ss06" horiz-adv-x="543" 
d="M186 572c-29 0 -53 22 -53 51s24 52 53 52c30 0 53 -23 53 -52s-23 -51 -53 -51zM377 572c-30 0 -53 22 -53 51s23 52 53 52c29 0 53 -23 53 -52s-24 -51 -53 -51zM281 476c117 0 199 -60 199 -172v-304h-75v46c-45 -33 -100 -58 -168 -58c-115 0 -187 56 -187 147
c0 81 63 136 172 136h183v33c0 65 -46 106 -124 106c-70 0 -124 -29 -134 -93h-77c11 112 107 159 211 159zM246 53c58 0 107 17 159 59v100h-185c-67 0 -96 -38 -96 -76c0 -48 43 -83 122 -83z" />
    <glyph glyph-name="agrave.ss06" horiz-adv-x="543" 
d="M326 553h-71l-94 143h85zM281 476c117 0 199 -60 199 -172v-304h-75v46c-45 -33 -100 -58 -168 -58c-115 0 -187 56 -187 147c0 81 63 136 172 136h183v33c0 65 -46 106 -124 106c-70 0 -124 -29 -134 -93h-77c11 112 107 159 211 159zM246 53c58 0 107 17 159 59v100
h-185c-67 0 -96 -38 -96 -76c0 -48 43 -83 122 -83z" />
    <glyph glyph-name="amacron.ss06" horiz-adv-x="543" 
d="M420 635v-63h-278v63h278zM281 476c117 0 199 -60 199 -172v-304h-75v46c-45 -33 -100 -58 -168 -58c-115 0 -187 56 -187 147c0 81 63 136 172 136h183v33c0 65 -46 106 -124 106c-70 0 -124 -29 -134 -93h-77c11 112 107 159 211 159zM246 53c58 0 107 17 159 59v100
h-185c-67 0 -96 -38 -96 -76c0 -48 43 -83 122 -83z" />
    <glyph glyph-name="aogonek.ss06" horiz-adv-x="543" 
d="M509 -122l8 -58c-11 -4 -33 -8 -53 -8c-78 0 -131 42 -131 106c0 43 30 77 72 99v29c-45 -33 -100 -58 -168 -58c-115 0 -187 56 -187 147c0 81 63 136 172 136h183v33c0 65 -46 106 -124 106c-70 0 -124 -29 -134 -93h-77c11 112 107 159 211 159
c117 0 199 -60 199 -172v-300l1 -4c-48 -14 -82 -35 -82 -74c0 -32 27 -52 75 -52c13 0 23 2 35 4zM246 53c58 0 107 17 159 59v100h-185c-67 0 -96 -38 -96 -76c0 -48 43 -83 122 -83z" />
    <glyph glyph-name="aring.ss06" horiz-adv-x="543" 
d="M281 544c-60 0 -102 41 -102 98s42 97 102 97c59 0 101 -40 101 -97s-42 -98 -101 -98zM281 697c-32 0 -56 -24 -56 -55c0 -32 24 -56 56 -56s55 24 55 56c0 31 -23 55 -55 55zM281 476c117 0 199 -60 199 -172v-304h-75v46c-45 -33 -100 -58 -168 -58
c-115 0 -187 56 -187 147c0 81 63 136 172 136h183v33c0 65 -46 106 -124 106c-70 0 -124 -29 -134 -93h-77c11 112 107 159 211 159zM246 53c58 0 107 17 159 59v100h-185c-67 0 -96 -38 -96 -76c0 -48 43 -83 122 -83z" />
    <glyph glyph-name="atilde.ss06" horiz-adv-x="543" 
d="M258 616c-37 24 -68 7 -68 -30h-62c0 102 92 121 148 86l42 -27c40 -27 69 -7 69 29h62c0 -101 -89 -124 -148 -86zM281 476c117 0 199 -60 199 -172v-304h-75v46c-45 -33 -100 -58 -168 -58c-115 0 -187 56 -187 147c0 81 63 136 172 136h183v33c0 65 -46 106 -124 106
c-70 0 -124 -29 -134 -93h-77c11 112 107 159 211 159zM246 53c58 0 107 17 159 59v100h-185c-67 0 -96 -38 -96 -76c0 -48 43 -83 122 -83z" />
    <glyph glyph-name="ordfeminine" unicode="&#xaa;" horiz-adv-x="354" 
d="M182 686c78 0 132 -46 132 -124v-193h-54v28c-26 -21 -58 -36 -100 -36c-76 0 -127 37 -127 98c0 54 41 88 114 88h113v15c0 44 -24 76 -78 76c-45 0 -78 -19 -84 -62h-54c6 78 70 110 138 110zM163 407c37 0 65 10 97 36v62h-116c-39 0 -59 -20 -59 -44
c0 -31 27 -54 78 -54z" />
    <glyph glyph-name="ordmasculine" unicode="&#xba;" horiz-adv-x="388" 
d="M194 359c-89 0 -166 69 -166 165c0 94 77 163 166 163c90 0 166 -69 166 -163c0 -96 -76 -165 -166 -165zM194 409c61 0 110 49 110 115c0 64 -49 112 -110 112s-110 -48 -110 -112c0 -66 49 -115 110 -115z" />
    <glyph glyph-name="zero" unicode="0" horiz-adv-x="718" 
d="M359 692c186 0 295 -144 295 -352s-109 -352 -295 -352s-295 144 -295 352s109 352 295 352zM359 60c139 0 215 115 215 280s-76 281 -215 281s-215 -116 -215 -281s76 -280 215 -280z" />
    <glyph glyph-name="one" unicode="1" horiz-adv-x="508" 
d="M318 66h177v-66h-447v66h192v525l-181 -65v74l215 80h44v-614z" />
    <glyph glyph-name="two" unicode="2" horiz-adv-x="559" 
d="M180 66h329v-66h-448v42l220 235c85 89 137 144 137 216s-52 131 -146 131c-85 0 -144 -50 -154 -131h-78c6 121 99 199 234 199c142 0 223 -87 223 -200c0 -82 -50 -144 -152 -249z" />
    <glyph glyph-name="three" unicode="3" horiz-adv-x="576" 
d="M408 345c70 -29 110 -86 110 -163c0 -113 -96 -194 -230 -194s-229 71 -243 181h77c11 -68 77 -112 166 -112c92 0 156 51 156 125c0 77 -63 127 -157 127h-55v65h55c82 0 135 50 135 124c0 77 -56 126 -142 126c-81 0 -136 -43 -144 -111h-78c10 108 95 179 221 179
c131 0 218 -78 218 -193c0 -70 -32 -124 -89 -154z" />
    <glyph glyph-name="four" unicode="4" horiz-adv-x="642" 
d="M597 216v-68h-107v-148h-76v148h-364v49l206 483h80l-193 -464h271v218h76v-218h107z" />
    <glyph glyph-name="five" unicode="5" horiz-adv-x="586" 
d="M299 421c141 0 233 -86 233 -209c0 -128 -93 -224 -234 -224c-131 0 -224 74 -245 194h77c19 -79 82 -126 168 -126c97 0 160 66 160 154c0 84 -64 143 -168 143l-200 -1v328h413v-70h-340v-189h136z" />
    <glyph glyph-name="six" unicode="6" horiz-adv-x="620" 
d="M311 456c146 0 252 -97 252 -233c0 -138 -106 -235 -253 -235s-252 98 -252 233c0 58 21 106 55 159l211 300h93l-159 -229c17 3 34 5 53 5zM310 53c102 0 175 69 175 166c0 96 -73 167 -175 167c-52 0 -97 -16 -128 -46l-4 -5c-30 -39 -43 -74 -43 -117
c0 -96 74 -165 175 -165z" />
    <glyph glyph-name="seven" unicode="7" horiz-adv-x="503" 
d="M15 680h466v-48l-310 -632h-89l300 607h-367v73z" />
    <glyph glyph-name="eight" unicode="8" horiz-adv-x="628" 
d="M440 360c82 -31 130 -92 130 -172c0 -120 -100 -200 -256 -200s-256 80 -256 200c0 80 48 142 130 172c-62 27 -101 79 -101 149c0 108 95 183 227 183s227 -75 227 -183c0 -71 -38 -122 -101 -149zM314 630c-88 0 -150 -53 -150 -125c0 -75 62 -124 150 -124
c87 0 150 50 150 124c0 71 -63 125 -150 125zM314 54c101 0 171 57 171 139c0 78 -70 134 -171 134c-102 0 -171 -56 -171 -134c0 -82 69 -139 171 -139z" />
    <glyph glyph-name="nine" unicode="9" horiz-adv-x="620" 
d="M310 692c147 0 252 -98 252 -233c0 -58 -21 -106 -55 -159l-211 -300h-93l159 229c-17 -3 -34 -5 -53 -5c-146 0 -252 97 -252 233c0 138 106 235 253 235zM438 340l4 5c30 39 43 74 43 117c0 96 -74 165 -175 165c-102 0 -175 -69 -175 -166c0 -96 73 -167 175 -167
c52 0 97 16 128 46z" />
    <glyph glyph-name="zero.osf" horiz-adv-x="666" 
d="M334 551c159 0 275 -111 275 -281c0 -171 -116 -282 -275 -282c-160 0 -276 111 -276 282c0 170 116 281 276 281zM334 58c112 0 198 83 198 212c0 128 -86 211 -198 211c-114 0 -200 -83 -200 -211c0 -129 86 -212 200 -212z" />
    <glyph glyph-name="one.osf" horiz-adv-x="508" 
d="M318 66h177v-66h-447v66h192v395l-181 -65v74l215 80h44v-484z" />
    <glyph glyph-name="two.osf" horiz-adv-x="549" 
d="M200 66h299v-66h-443v42l154 110c101 72 198 134 198 210c0 73 -49 122 -138 122c-88 0 -145 -52 -153 -133h-77c6 120 91 202 226 202c138 0 221 -81 221 -193c0 -103 -95 -165 -218 -247z" />
    <glyph glyph-name="three.osf" horiz-adv-x="576" 
d="M408 205c70 -29 110 -86 110 -163c0 -113 -96 -194 -230 -194s-229 71 -243 181h77c11 -68 77 -112 166 -112c92 0 156 51 156 125c0 77 -63 127 -157 127h-55v65h55c82 0 135 50 135 124c0 77 -56 126 -142 126c-81 0 -136 -43 -144 -111h-78c10 108 95 179 221 179
c131 0 218 -78 218 -193c0 -70 -32 -124 -89 -154z" />
    <glyph glyph-name="four.osf" horiz-adv-x="642" 
d="M597 82v-68h-107v-148h-76v148h-364v49l206 483h80l-193 -464h271v218h76v-218h107z" />
    <glyph glyph-name="five.osf" horiz-adv-x="586" 
d="M299 284c141 0 233 -86 233 -209c0 -128 -93 -224 -234 -224c-131 0 -224 74 -245 194h77c19 -79 82 -126 168 -126c97 0 160 66 160 154c0 84 -64 143 -168 143l-200 -1v328h413v-70h-340v-189h136z" />
    <glyph glyph-name="six.osf" horiz-adv-x="620" 
d="M311 456c146 0 252 -97 252 -233c0 -138 -106 -235 -253 -235s-252 98 -252 233c0 58 21 106 55 159l211 300h93l-159 -229c17 3 34 5 53 5zM310 53c102 0 175 69 175 166c0 96 -73 167 -175 167c-52 0 -97 -16 -128 -46l-4 -5c-30 -39 -43 -74 -43 -117
c0 -96 74 -165 175 -165z" />
    <glyph glyph-name="seven.osf" horiz-adv-x="503" 
d="M15 540h466v-48l-310 -632h-89l300 607h-367v73z" />
    <glyph glyph-name="eight.osf" horiz-adv-x="628" 
d="M440 360c82 -31 130 -92 130 -172c0 -120 -100 -200 -256 -200s-256 80 -256 200c0 80 48 142 130 172c-62 27 -101 79 -101 149c0 108 95 183 227 183s227 -75 227 -183c0 -71 -38 -122 -101 -149zM314 630c-88 0 -150 -53 -150 -125c0 -75 62 -124 150 -124
c87 0 150 50 150 124c0 71 -63 125 -150 125zM314 54c101 0 171 57 171 139c0 78 -70 134 -171 134c-102 0 -171 -56 -171 -134c0 -82 69 -139 171 -139z" />
    <glyph glyph-name="nine.osf" horiz-adv-x="620" 
d="M310 546c147 0 252 -98 252 -233c0 -58 -21 -106 -55 -159l-211 -300h-93l159 229c-17 -3 -34 -5 -53 -5c-146 0 -252 97 -252 233c0 138 106 235 253 235zM438 194l4 5c30 39 43 74 43 117c0 96 -74 165 -175 165c-102 0 -175 -69 -175 -166c0 -96 73 -167 175 -167
c52 0 97 16 128 46z" />
    <glyph glyph-name="zero.osf.zero" horiz-adv-x="666" 
d="M334 551c159 0 275 -111 275 -281c0 -171 -116 -282 -275 -282c-160 0 -276 111 -276 282c0 170 116 281 276 281zM134 270c0 -51 14 -95 37 -129l288 297c-34 28 -77 43 -125 43c-114 0 -200 -83 -200 -211zM334 58c112 0 198 83 198 212c0 53 -15 98 -40 133l-288 -299
c34 -30 79 -46 130 -46z" />
    <glyph glyph-name="zero.tf" horiz-adv-x="670" 
d="M335 692c176 0 280 -144 280 -352s-104 -352 -280 -352s-280 144 -280 352s104 352 280 352zM335 60c129 0 200 115 200 280s-71 281 -200 281s-200 -116 -200 -281s71 -280 200 -280z" />
    <glyph glyph-name="one.tf" horiz-adv-x="670" 
d="M580 66v-66h-487v66h216v525l-181 -65v74l215 80h44v-614h193z" />
    <glyph glyph-name="two.tf" horiz-adv-x="670" 
d="M236 66h329v-66h-448v42l220 235c85 89 137 144 137 216s-52 131 -146 131c-85 0 -144 -50 -154 -131h-78c6 121 99 199 234 199c142 0 223 -87 223 -200c0 -82 -50 -144 -152 -249z" />
    <glyph glyph-name="three.tf" horiz-adv-x="670" 
d="M466 345c70 -29 110 -86 110 -163c0 -113 -96 -194 -230 -194s-229 71 -243 181h77c11 -68 77 -112 166 -112c92 0 156 51 156 125c0 77 -63 127 -157 127h-55v65h55c82 0 135 50 135 124c0 77 -56 126 -142 126c-81 0 -136 -43 -144 -111h-78c10 108 95 179 221 179
c131 0 218 -78 218 -193c0 -70 -32 -124 -89 -154z" />
    <glyph glyph-name="four.tf" horiz-adv-x="670" 
d="M609 216v-68h-107v-148h-76v148h-364v49l206 483h80l-193 -464h271v218h76v-218h107z" />
    <glyph glyph-name="five.tf" horiz-adv-x="670" 
d="M341 421c141 0 233 -86 233 -209c0 -128 -93 -224 -234 -224c-131 0 -224 74 -245 194h77c19 -79 82 -126 168 -126c97 0 160 66 160 154c0 84 -64 143 -168 143l-200 -1v328h413v-70h-340v-189h136z" />
    <glyph glyph-name="six.tf" horiz-adv-x="670" 
d="M334 456c146 0 252 -97 252 -233c0 -138 -106 -235 -253 -235s-252 98 -252 233c0 58 21 106 55 159l211 300h93l-159 -229c17 3 34 5 53 5zM333 53c102 0 175 69 175 166c0 96 -73 167 -175 167c-52 0 -97 -16 -128 -46l-4 -5c-30 -39 -43 -74 -43 -117
c0 -96 74 -165 175 -165z" />
    <glyph glyph-name="seven.tf" horiz-adv-x="670" 
d="M106 680h466v-48l-310 -632h-89l300 607h-367v73z" />
    <glyph glyph-name="eight.tf" horiz-adv-x="670" 
d="M462 360c82 -31 130 -92 130 -172c0 -120 -100 -200 -256 -200s-256 80 -256 200c0 80 48 142 130 172c-62 27 -101 79 -101 149c0 108 95 183 227 183s227 -75 227 -183c0 -71 -38 -122 -101 -149zM336 630c-88 0 -150 -53 -150 -125c0 -75 62 -124 150 -124
c87 0 150 50 150 124c0 71 -63 125 -150 125zM336 54c101 0 171 57 171 139c0 78 -70 134 -171 134c-102 0 -171 -56 -171 -134c0 -82 69 -139 171 -139z" />
    <glyph glyph-name="nine.tf" horiz-adv-x="670" 
d="M341 692c147 0 252 -98 252 -233c0 -58 -21 -106 -55 -159l-211 -300h-93l159 229c-17 -3 -34 -5 -53 -5c-146 0 -252 97 -252 233c0 138 106 235 253 235zM469 340l4 5c30 39 43 74 43 117c0 96 -74 165 -175 165c-102 0 -175 -69 -175 -166c0 -96 73 -167 175 -167
c52 0 97 16 128 46z" />
    <glyph glyph-name="zero.zero" horiz-adv-x="718" 
d="M359 692c186 0 295 -144 295 -352s-109 -352 -295 -352s-295 144 -295 352s109 352 295 352zM144 340c0 -77 16 -143 48 -191l290 432c-33 26 -74 40 -123 40c-139 0 -215 -116 -215 -281zM359 60c139 0 215 115 215 280c0 79 -17 146 -51 196l-290 -433
c33 -28 75 -43 126 -43z" />
    <glyph glyph-name="uni2080" unicode="&#x2080;" horiz-adv-x="437" 
d="M219 213c113 0 178 -87 178 -201c0 -113 -65 -201 -178 -201s-179 88 -179 201c0 114 66 201 179 201zM219 -133c77 0 117 65 117 145c0 81 -40 146 -117 146s-118 -65 -118 -146c0 -80 41 -145 118 -145z" />
    <glyph glyph-name="uni2081" unicode="&#x2081;" horiz-adv-x="314" 
d="M198 -130h104v-50h-272v50h111v267l-105 -30v52l130 40h32v-329z" />
    <glyph glyph-name="uni2082" unicode="&#x2082;" horiz-adv-x="361" 
d="M144 -130h177v-50h-273v32l136 138c46 45 70 71 70 106c0 37 -28 64 -73 64c-46 0 -74 -26 -77 -67h-59c3 71 51 120 134 120c87 0 135 -52 135 -114c0 -43 -23 -79 -80 -136z" />
    <glyph glyph-name="uni2083" unicode="&#x2083;" horiz-adv-x="373" 
d="M269 14c37 -17 59 -47 59 -88c0 -65 -56 -114 -141 -114c-82 0 -135 43 -145 109h59c8 -33 37 -57 87 -57s83 26 83 62c0 39 -32 62 -85 62h-33v48h33c43 0 72 26 72 62s-27 61 -74 61c-43 0 -68 -23 -72 -56h-59c6 66 55 108 131 108c80 0 130 -47 130 -113
c0 -36 -16 -66 -45 -84z" />
    <glyph glyph-name="uni2084" unicode="&#x2084;" horiz-adv-x="403" 
d="M363 -48v-52h-59v-80h-58v80h-213v38l119 266h61l-109 -252h142v117h58v-117h59z" />
    <glyph glyph-name="uni2085" unicode="&#x2085;" horiz-adv-x="380" 
d="M191 63c89 0 137 -50 137 -122c0 -73 -54 -130 -141 -130c-85 0 -135 45 -147 114h60c10 -38 36 -61 87 -61c53 0 84 34 84 76s-28 71 -82 71h-126v193h250v-54h-195v-87h73z" />
    <glyph glyph-name="uni2086" unicode="&#x2086;" horiz-adv-x="374" 
d="M187 81c89 0 150 -56 150 -133c0 -78 -61 -137 -150 -137s-152 60 -152 135c0 33 13 61 35 94l116 164h71l-86 -124c5 1 10 1 16 1zM187 -139c52 0 91 34 91 83c0 50 -39 84 -91 84c-29 0 -52 -8 -69 -24l-2 -2c-12 -15 -22 -36 -22 -57c0 -48 39 -84 93 -84z" />
    <glyph glyph-name="uni2087" unicode="&#x2087;" horiz-adv-x="317" 
d="M20 204h279v-36l-175 -348h-68l166 328h-202v56z" />
    <glyph glyph-name="uni2088" unicode="&#x2088;" horiz-adv-x="396" 
d="M283 23c43 -19 68 -52 68 -96c0 -67 -59 -116 -153 -116s-153 49 -153 116c0 44 25 78 69 96c-33 17 -52 45 -52 83c0 62 56 107 136 107s137 -45 137 -107c0 -38 -20 -66 -52 -83zM198 165c-44 0 -77 -26 -77 -63c0 -39 33 -63 77 -63s77 24 77 63c0 37 -33 63 -77 63z
M198 -138c52 0 87 28 87 69c0 40 -35 67 -87 67s-87 -27 -87 -67c0 -41 35 -69 87 -69z" />
    <glyph glyph-name="uni2089" unicode="&#x2089;" horiz-adv-x="374" 
d="M187 214c89 0 152 -60 152 -135c0 -33 -13 -61 -35 -94l-116 -164h-71l86 124c-5 -1 -10 -1 -16 -1c-89 0 -150 56 -150 133c0 78 61 137 150 137zM256 21l2 2c12 15 22 36 22 57c0 48 -39 84 -93 84c-52 0 -91 -34 -91 -83c0 -50 39 -84 91 -84c29 0 52 8 69 24z" />
    <glyph glyph-name="zero.dnom" horiz-adv-x="437" 
d="M219 393c113 0 178 -87 178 -201c0 -113 -65 -201 -178 -201s-179 88 -179 201c0 114 66 201 179 201zM219 47c77 0 117 65 117 145c0 81 -40 146 -117 146s-118 -65 -118 -146c0 -80 41 -145 118 -145z" />
    <glyph glyph-name="one.dnom" horiz-adv-x="314" 
d="M198 50h104v-50h-272v50h111v267l-105 -30v52l130 40h32v-329z" />
    <glyph glyph-name="two.dnom" horiz-adv-x="361" 
d="M144 50h177v-50h-273v32l136 138c46 45 70 71 70 106c0 37 -28 64 -73 64c-46 0 -74 -26 -77 -67h-59c3 71 51 120 134 120c87 0 135 -52 135 -114c0 -43 -23 -79 -80 -136z" />
    <glyph glyph-name="three.dnom" horiz-adv-x="373" 
d="M269 194c37 -17 59 -47 59 -88c0 -65 -56 -114 -141 -114c-82 0 -135 43 -145 109h59c8 -33 37 -57 87 -57s83 26 83 62c0 39 -32 62 -85 62h-33v48h33c43 0 72 26 72 62s-27 61 -74 61c-43 0 -68 -23 -72 -56h-59c6 66 55 108 131 108c80 0 130 -47 130 -113
c0 -36 -16 -66 -45 -84z" />
    <glyph glyph-name="four.dnom" horiz-adv-x="403" 
d="M363 132v-52h-59v-80h-58v80h-213v38l119 266h61l-109 -252h142v117h58v-117h59z" />
    <glyph glyph-name="five.dnom" horiz-adv-x="380" 
d="M191 243c89 0 137 -50 137 -122c0 -73 -54 -130 -141 -130c-85 0 -135 45 -147 114h60c10 -38 36 -61 87 -61c53 0 84 34 84 76s-28 71 -82 71h-126v193h250v-54h-195v-87h73z" />
    <glyph glyph-name="six.dnom" horiz-adv-x="374" 
d="M187 261c89 0 150 -56 150 -133c0 -78 -61 -137 -150 -137s-152 60 -152 135c0 33 13 61 35 94l116 164h71l-86 -124c5 1 10 1 16 1zM187 41c52 0 91 34 91 83c0 50 -39 84 -91 84c-29 0 -52 -8 -69 -24l-2 -2c-12 -15 -22 -36 -22 -57c0 -48 39 -84 93 -84z" />
    <glyph glyph-name="seven.dnom" horiz-adv-x="317" 
d="M20 384h279v-36l-175 -348h-68l166 328h-202v56z" />
    <glyph glyph-name="eight.dnom" horiz-adv-x="396" 
d="M283 203c43 -19 68 -52 68 -96c0 -67 -59 -116 -153 -116s-153 49 -153 116c0 44 25 78 69 96c-33 17 -52 45 -52 83c0 62 56 107 136 107s137 -45 137 -107c0 -38 -20 -66 -52 -83zM198 345c-44 0 -77 -26 -77 -63c0 -39 33 -63 77 -63s77 24 77 63c0 37 -33 63 -77 63z
M198 42c52 0 87 28 87 69c0 40 -35 67 -87 67s-87 -27 -87 -67c0 -41 35 -69 87 -69z" />
    <glyph glyph-name="nine.dnom" horiz-adv-x="374" 
d="M187 394c89 0 152 -60 152 -135c0 -33 -13 -61 -35 -94l-116 -164h-71l86 124c-5 -1 -10 -1 -16 -1c-89 0 -150 56 -150 133c0 78 61 137 150 137zM256 201l2 2c12 15 22 36 22 57c0 48 -39 84 -93 84c-52 0 -91 -34 -91 -83c0 -50 39 -84 91 -84c29 0 52 8 69 24z" />
    <glyph glyph-name="zero.numr" horiz-adv-x="437" 
d="M219 690c113 0 178 -87 178 -201c0 -113 -65 -201 -178 -201s-179 88 -179 201c0 114 66 201 179 201zM219 344c77 0 117 65 117 145c0 81 -40 146 -117 146s-118 -65 -118 -146c0 -80 41 -145 118 -145z" />
    <glyph glyph-name="one.numr" horiz-adv-x="314" 
d="M198 347h104v-50h-272v50h111v267l-105 -30v52l130 40h32v-329z" />
    <glyph glyph-name="two.numr" horiz-adv-x="361" 
d="M144 347h177v-50h-273v32l136 138c46 45 70 71 70 106c0 37 -28 64 -73 64c-46 0 -74 -26 -77 -67h-59c3 71 51 120 134 120c87 0 135 -52 135 -114c0 -43 -23 -79 -80 -136z" />
    <glyph glyph-name="three.numr" horiz-adv-x="373" 
d="M269 495c37 -17 59 -47 59 -88c0 -65 -56 -114 -141 -114c-82 0 -135 43 -145 109h59c8 -33 37 -57 87 -57s83 26 83 62c0 39 -32 62 -85 62h-33v48h33c43 0 72 26 72 62s-27 61 -74 61c-43 0 -68 -23 -72 -56h-59c6 66 55 108 131 108c80 0 130 -47 130 -113
c0 -36 -16 -66 -45 -84z" />
    <glyph glyph-name="four.numr" horiz-adv-x="403" 
d="M363 429v-52h-59v-80h-58v80h-213v38l119 266h61l-109 -252h142v117h58v-117h59z" />
    <glyph glyph-name="five.numr" horiz-adv-x="380" 
d="M191 540c89 0 137 -50 137 -122c0 -73 -54 -130 -141 -130c-85 0 -135 45 -147 114h60c10 -38 36 -61 87 -61c53 0 84 34 84 76s-28 71 -82 71h-126v193h250v-54h-195v-87h73z" />
    <glyph glyph-name="six.numr" horiz-adv-x="374" 
d="M187 558c89 0 150 -56 150 -133c0 -78 -61 -137 -150 -137s-152 60 -152 135c0 33 13 61 35 94l116 164h71l-86 -124c5 1 10 1 16 1zM187 338c52 0 91 34 91 83c0 50 -39 84 -91 84c-29 0 -52 -8 -69 -24l-2 -2c-12 -15 -22 -36 -22 -57c0 -48 39 -84 93 -84z" />
    <glyph glyph-name="seven.numr" horiz-adv-x="317" 
d="M20 681h279v-36l-175 -348h-68l166 328h-202v56z" />
    <glyph glyph-name="eight.numr" horiz-adv-x="396" 
d="M283 504c43 -19 68 -52 68 -96c0 -67 -59 -116 -153 -116s-153 49 -153 116c0 44 25 78 69 96c-33 17 -52 45 -52 83c0 62 56 107 136 107s137 -45 137 -107c0 -38 -20 -66 -52 -83zM198 646c-44 0 -77 -26 -77 -63c0 -39 33 -63 77 -63s77 24 77 63c0 37 -33 63 -77 63z
M198 343c52 0 87 28 87 69c0 40 -35 67 -87 67s-87 -27 -87 -67c0 -41 35 -69 87 -69z" />
    <glyph glyph-name="nine.numr" horiz-adv-x="374" 
d="M187 695c89 0 152 -60 152 -135c0 -33 -13 -61 -35 -94l-116 -164h-71l86 124c-5 -1 -10 -1 -16 -1c-89 0 -150 56 -150 133c0 78 61 137 150 137zM256 502l2 2c12 15 22 36 22 57c0 48 -39 84 -93 84c-52 0 -91 -34 -91 -83c0 -50 39 -84 91 -84c29 0 52 8 69 24z" />
    <glyph glyph-name="uni2070" unicode="&#x2070;" horiz-adv-x="437" 
d="M219 696c113 0 178 -87 178 -201c0 -113 -65 -201 -178 -201s-179 88 -179 201c0 114 66 201 179 201zM219 350c77 0 117 65 117 145c0 81 -40 146 -117 146s-118 -65 -118 -146c0 -80 41 -145 118 -145z" />
    <glyph glyph-name="uni00B9" unicode="&#xb9;" horiz-adv-x="314" 
d="M198 355h104v-50h-272v50h111v267l-105 -30v52l130 40h32v-329z" />
    <glyph glyph-name="uni00B2" unicode="&#xb2;" horiz-adv-x="361" 
d="M144 353h177v-50h-273v32l136 138c46 45 70 71 70 106c0 37 -28 64 -73 64c-46 0 -74 -26 -77 -67h-59c3 71 51 120 134 120c87 0 135 -52 135 -114c0 -43 -23 -79 -80 -136z" />
    <glyph glyph-name="uni00B3" unicode="&#xb3;" horiz-adv-x="373" 
d="M269 499c37 -17 59 -47 59 -88c0 -65 -56 -114 -141 -114c-82 0 -135 43 -145 109h59c8 -33 37 -57 87 -57s83 26 83 62c0 39 -32 62 -85 62h-33v48h33c43 0 72 26 72 62s-27 61 -74 61c-43 0 -68 -23 -72 -56h-59c6 66 55 108 131 108c80 0 130 -47 130 -113
c0 -36 -16 -66 -45 -84z" />
    <glyph glyph-name="uni2074" unicode="&#x2074;" horiz-adv-x="403" 
d="M363 437v-52h-59v-80h-58v80h-213v38l119 266h61l-109 -252h142v117h58v-117h59z" />
    <glyph glyph-name="uni2075" unicode="&#x2075;" horiz-adv-x="380" 
d="M191 548c89 0 137 -50 137 -122c0 -73 -54 -130 -141 -130c-85 0 -135 45 -147 114h60c10 -38 36 -61 87 -61c53 0 84 34 84 76s-28 71 -82 71h-126v193h250v-54h-195v-87h73z" />
    <glyph glyph-name="uni2076" unicode="&#x2076;" horiz-adv-x="374" 
d="M187 566c89 0 150 -56 150 -133c0 -78 -61 -137 -150 -137s-152 60 -152 135c0 33 13 61 35 94l116 164h71l-86 -124c5 1 10 1 16 1zM187 346c52 0 91 34 91 83c0 50 -39 84 -91 84c-29 0 -52 -8 -69 -24l-2 -2c-12 -15 -22 -36 -22 -57c0 -48 39 -84 93 -84z" />
    <glyph glyph-name="uni2077" unicode="&#x2077;" horiz-adv-x="317" 
d="M20 689h279v-36l-175 -348h-68l166 328h-202v56z" />
    <glyph glyph-name="uni2078" unicode="&#x2078;" horiz-adv-x="396" 
d="M283 506c43 -19 68 -52 68 -96c0 -67 -59 -116 -153 -116s-153 49 -153 116c0 44 25 78 69 96c-33 17 -52 45 -52 83c0 62 56 107 136 107s137 -45 137 -107c0 -38 -20 -66 -52 -83zM198 648c-44 0 -77 -26 -77 -63c0 -39 33 -63 77 -63s77 24 77 63c0 37 -33 63 -77 63z
M198 345c52 0 87 28 87 69c0 40 -35 67 -87 67s-87 -27 -87 -67c0 -41 35 -69 87 -69z" />
    <glyph glyph-name="uni2079" unicode="&#x2079;" horiz-adv-x="374" 
d="M187 701c89 0 152 -60 152 -135c0 -33 -13 -61 -35 -94l-116 -164h-71l86 124c-5 -1 -10 -1 -16 -1c-89 0 -150 56 -150 133c0 78 61 137 150 137zM256 508l2 2c12 15 22 36 22 57c0 48 -39 84 -93 84c-52 0 -91 -34 -91 -83c0 -50 39 -84 91 -84c29 0 52 8 69 24z" />
    <glyph glyph-name="fraction" unicode="&#x2044;" horiz-adv-x="452" 
d="M482 680l-454 -680h-58l455 680h57z" />
    <glyph glyph-name="onehalf" unicode="&#xbd;" horiz-adv-x="876" 
d="M642 680h57l-454 -680h-58zM302 297h-272v50h111v267l-105 -30v52l130 40h32v-329h104v-50zM659 50h177v-50h-273v32l136 138c46 45 70 71 70 106c0 37 -28 64 -73 64c-46 0 -74 -26 -77 -67h-59c3 71 51 120 134 120c87 0 135 -52 135 -114c0 -43 -23 -79 -80 -136z" />
    <glyph glyph-name="onequarter" unicode="&#xbc;" horiz-adv-x="881" 
d="M639 680h57l-454 -680h-58zM302 297h-272v50h111v267l-105 -30v52l130 40h32v-329h104v-50zM841 132v-52h-59v-80h-58v80h-213v38l119 266h61l-109 -252h142v117h58v-117h59z" />
    <glyph glyph-name="threequarters" unicode="&#xbe;" horiz-adv-x="866" 
d="M328 407c0 -65 -56 -114 -141 -114c-82 0 -135 43 -145 109h59c8 -33 37 -57 87 -57s83 26 83 62c0 39 -32 62 -85 62h-33v48h33c43 0 72 26 72 62s-27 61 -74 61c-43 0 -68 -23 -72 -56h-59c6 66 55 108 131 108c80 0 130 -47 130 -113c0 -36 -16 -66 -45 -84
c37 -17 59 -47 59 -88zM630 680h57l-454 -680h-58zM826 132v-52h-59v-80h-58v80h-213v38l119 266h61l-109 -252h142v117h58v-117h59z" />
    <glyph glyph-name="oneeighth" unicode="&#x215b;" horiz-adv-x="839" 
d="M618 680h57l-454 -680h-58zM302 297h-272v50h111v267l-105 -30v52l130 40h32v-329h104v-50zM727 203c43 -19 68 -52 68 -96c0 -67 -59 -116 -153 -116s-153 49 -153 116c0 44 25 78 69 96c-33 17 -52 45 -52 83c0 62 56 107 136 107s137 -45 137 -107
c0 -38 -20 -66 -52 -83zM642 345c-44 0 -77 -26 -77 -63c0 -39 33 -63 77 -63s77 24 77 63c0 37 -33 63 -77 63zM642 42c52 0 87 28 87 69c0 40 -35 67 -87 67s-87 -27 -87 -67c0 -41 35 -69 87 -69z" />
    <glyph glyph-name="threeeighths" unicode="&#x215c;" horiz-adv-x="857" 
d="M328 407c0 -65 -56 -114 -141 -114c-82 0 -135 43 -145 109h59c8 -33 37 -57 87 -57s83 26 83 62c0 39 -32 62 -85 62h-33v48h33c43 0 72 26 72 62s-27 61 -74 61c-43 0 -68 -23 -72 -56h-59c6 66 55 108 131 108c80 0 130 -47 130 -113c0 -36 -16 -66 -45 -84
c37 -17 59 -47 59 -88zM630 680h57l-454 -680h-58zM745 203c43 -19 68 -52 68 -96c0 -67 -59 -116 -153 -116s-153 49 -153 116c0 44 25 78 69 96c-33 17 -52 45 -52 83c0 62 56 107 136 107s137 -45 137 -107c0 -38 -20 -66 -52 -83zM660 345c-44 0 -77 -26 -77 -63
c0 -39 33 -63 77 -63s77 24 77 63c0 37 -33 63 -77 63zM660 42c52 0 87 28 87 69c0 40 -35 67 -87 67s-87 -27 -87 -67c0 -41 35 -69 87 -69z" />
    <glyph glyph-name="fiveeighths" unicode="&#x215d;" horiz-adv-x="861" 
d="M328 418c0 -73 -54 -130 -141 -130c-85 0 -135 45 -147 114h60c10 -38 36 -61 87 -61c53 0 84 34 84 76s-28 71 -82 71h-126v193h250v-54h-195v-87h73c89 0 137 -50 137 -122zM628 680h57l-454 -680h-58zM748 203c43 -19 68 -52 68 -96c0 -67 -59 -116 -153 -116
s-153 49 -153 116c0 44 25 78 69 96c-33 17 -52 45 -52 83c0 62 56 107 136 107s137 -45 137 -107c0 -38 -20 -66 -52 -83zM663 345c-44 0 -77 -26 -77 -63c0 -39 33 -63 77 -63s77 24 77 63c0 37 -33 63 -77 63zM663 42c52 0 87 28 87 69c0 40 -35 67 -87 67
s-87 -27 -87 -67c0 -41 35 -69 87 -69z" />
    <glyph glyph-name="seveneighths" unicode="&#x215e;" horiz-adv-x="769" 
d="M124 297h-68l166 328h-202v56h279v-36zM525 680h57l-454 -680h-58zM656 203c43 -19 68 -52 68 -96c0 -67 -59 -116 -153 -116s-153 49 -153 116c0 44 25 78 69 96c-33 17 -52 45 -52 83c0 62 56 107 136 107s137 -45 137 -107c0 -38 -20 -66 -52 -83zM571 345
c-44 0 -77 -26 -77 -63c0 -39 33 -63 77 -63s77 24 77 63c0 37 -33 63 -77 63zM571 42c52 0 87 28 87 69c0 40 -35 67 -87 67s-87 -27 -87 -67c0 -41 35 -69 87 -69z" />
    <glyph glyph-name="asterisk" unicode="*" horiz-adv-x="402" 
d="M245 533l107 -65l-22 -39l-106 63v-113h-46v113l-105 -63l-23 39l107 65l-107 63l23 41l105 -63v110h46v-111l106 64l22 -41z" />
    <glyph glyph-name="backslash" unicode="\" horiz-adv-x="403" 
d="M33 730h74l264 -890h-74z" />
    <glyph glyph-name="periodcentered" unicode="&#xb7;" horiz-adv-x="183" 
d="M91 220c-28 0 -51 22 -51 51c0 28 23 49 51 49c29 0 52 -21 52 -49c0 -29 -23 -51 -52 -51z" />
    <glyph glyph-name="bullet" unicode="&#x2022;" horiz-adv-x="320" 
d="M160 181c-63 0 -117 54 -117 116c0 63 54 117 117 117s118 -54 118 -117c0 -62 -55 -116 -118 -116z" />
    <glyph glyph-name="colon" unicode=":" horiz-adv-x="183" 
d="M91 372c-28 0 -51 22 -51 51c0 28 23 49 51 49c29 0 52 -21 52 -49c0 -29 -23 -51 -52 -51zM91 -8c-28 0 -51 22 -51 51c0 28 23 49 51 49c29 0 52 -21 52 -49c0 -29 -23 -51 -52 -51z" />
    <glyph glyph-name="comma" unicode="," horiz-adv-x="198" 
d="M40 -128l49 129c-21 8 -32 23 -32 42c0 28 22 49 50 49c29 0 51 -21 51 -49c0 -11 0 -18 -16 -49l-54 -122h-48z" />
    <glyph glyph-name="ellipsis" unicode="&#x2026;" horiz-adv-x="588" 
d="M91 -8c-28 0 -51 22 -51 51c0 28 23 49 51 49c29 0 52 -21 52 -49c0 -29 -23 -51 -52 -51zM291 -8c-28 0 -51 22 -51 51c0 28 23 49 51 49c29 0 52 -21 52 -49c0 -29 -23 -51 -52 -51zM496 -8c-28 0 -51 22 -51 51c0 28 23 49 51 49c29 0 52 -21 52 -49
c0 -29 -23 -51 -52 -51z" />
    <glyph glyph-name="exclam" unicode="!" horiz-adv-x="266" 
d="M173 680l-6 -491h-69l-5 491h80zM133 -7c-28 0 -51 22 -51 50s23 50 51 50s51 -22 51 -50s-23 -50 -51 -50z" />
    <glyph glyph-name="exclamdown" unicode="&#xa1;" horiz-adv-x="266" 
d="M133 475c28 0 51 -22 51 -50s-23 -50 -51 -50s-51 22 -51 50s23 50 51 50zM173 -212h-80l5 491h69z" />
    <glyph glyph-name="numbersign" unicode="#" horiz-adv-x="740" 
d="M567 411l-47 -149h125v-67h-146l-60 -195h-79l61 195h-197l-60 -195h-79l61 195h-106v67h127l46 149h-118v67h140l63 203h79l-64 -203h197l63 203h79l-64 -203h112v-67h-133zM488 411h-196l-47 -149h197z" />
    <glyph glyph-name="period" unicode="." horiz-adv-x="183" 
d="M91 -8c-28 0 -51 22 -51 51c0 28 23 49 51 49c29 0 52 -21 52 -49c0 -29 -23 -51 -52 -51z" />
    <glyph glyph-name="question" unicode="?" horiz-adv-x="562" 
d="M278 192h-61l-7 147h48c89 0 154 61 154 143c0 81 -60 142 -147 142c-69 0 -128 -42 -140 -108h-77c14 107 97 176 214 176c129 0 225 -88 225 -209c0 -112 -82 -192 -207 -199zM246 -7c-28 0 -51 22 -51 50s23 50 51 50s51 -22 51 -50s-23 -50 -51 -50z" />
    <glyph glyph-name="questiondown" unicode="&#xbf;" horiz-adv-x="562" 
d="M316 548c28 0 51 -22 51 -50s-23 -50 -51 -50s-51 22 -51 50s23 50 51 50zM284 349h61l7 -147h-48c-89 0 -154 -61 -154 -143c0 -81 60 -142 147 -142c69 0 128 42 140 108h77c-14 -107 -97 -176 -214 -176c-129 0 -225 88 -225 209c0 112 82 192 207 199z" />
    <glyph glyph-name="quotedbl" unicode="&#x22;" horiz-adv-x="340" 
d="M53 700h66v-269h-66v269zM222 700h66v-269h-66v269z" />
    <glyph glyph-name="quotesingle" unicode="'" horiz-adv-x="171" 
d="M53 700h66v-269h-66v269z" />
    <glyph glyph-name="semicolon" unicode=";" horiz-adv-x="199" 
d="M107 372c-28 0 -51 22 -51 51c0 28 23 49 51 49c29 0 52 -21 52 -49c0 -29 -23 -51 -52 -51zM41 -128l49 129c-21 8 -32 23 -32 42c0 28 22 49 50 49c29 0 51 -21 51 -49c0 -11 0 -18 -16 -49l-54 -122h-48z" />
    <glyph glyph-name="slash" unicode="/" horiz-adv-x="403" 
d="M385 730l-264 -890h-74l264 890h74z" />
    <glyph glyph-name="underscore" unicode="_" horiz-adv-x="648" 
d="M40 -191v67h568v-67h-568z" />
    <glyph glyph-name="backslash.case" horiz-adv-x="376" 
d="M264 -47l-231 777h79l231 -777h-79z" />
    <glyph glyph-name="periodcentered.case" horiz-adv-x="183" 
d="M91 288c-28 0 -51 22 -51 51c0 28 23 49 51 49c29 0 52 -21 52 -49c0 -29 -23 -51 -52 -51z" />
    <glyph glyph-name="bullet.case" horiz-adv-x="320" 
d="M160 216c-63 0 -117 54 -117 116c0 63 54 117 117 117s118 -54 118 -117c0 -62 -55 -116 -118 -116z" />
    <glyph glyph-name="exclamdown.case" horiz-adv-x="266" 
d="M133 687c28 0 51 -22 51 -50s-23 -50 -51 -50s-51 22 -51 50s23 50 51 50zM173 0h-80l5 491h69z" />
    <glyph glyph-name="questiondown.case" horiz-adv-x="562" 
d="M316 687c28 0 51 -22 51 -50s-23 -50 -51 -50s-51 22 -51 50s23 50 51 50zM284 488h61l7 -147h-48c-89 0 -154 -61 -154 -143c0 -81 60 -142 147 -142c69 0 128 42 140 108h77c-14 -107 -97 -176 -214 -176c-129 0 -225 88 -225 209c0 112 82 192 207 199z" />
    <glyph glyph-name="slash.case" horiz-adv-x="376" 
d="M112 -47h-79l231 777h79z" />
    <glyph glyph-name="braceleft" unicode="{" horiz-adv-x="356" 
d="M212 440c0 -75 -16 -114 -73 -133c57 -19 73 -59 73 -133v-129c0 -62 39 -103 99 -103v-74c-105 0 -175 70 -175 177v127c0 80 -27 101 -98 101v68c71 0 98 21 98 101v127c0 106 70 176 175 176v-74c-60 0 -99 -41 -99 -102v-129z" />
    <glyph glyph-name="braceright" unicode="}" horiz-adv-x="363" 
d="M151 440v129c0 61 -39 102 -99 102v74c105 0 175 -70 175 -176v-127c0 -80 27 -101 98 -101v-68c-71 0 -98 -21 -98 -101v-127c0 -107 -70 -177 -175 -177v74c60 0 99 41 99 103v129c0 74 16 114 73 133c-57 19 -73 58 -73 133z" />
    <glyph glyph-name="bracketleft" unicode="[" horiz-adv-x="353" 
d="M169 657v-709h139v-73h-215v855h215v-73h-139z" />
    <glyph glyph-name="bracketright" unicode="]" horiz-adv-x="353" 
d="M184 657h-139v73h215v-855h-215v73h139v709z" />
    <glyph glyph-name="parenleft" unicode="(" horiz-adv-x="349" 
d="M142 304c0 -167 62 -276 172 -378l-49 -50c-132 108 -201 253 -201 428c0 174 69 319 201 427l49 -50c-110 -101 -172 -211 -172 -377z" />
    <glyph glyph-name="parenright" unicode=")" horiz-adv-x="349" 
d="M84 731c132 -108 201 -253 201 -427c0 -175 -69 -320 -201 -428l-49 50c110 102 172 211 172 378c0 166 -62 276 -172 377z" />
    <glyph glyph-name="braceleft.case" horiz-adv-x="356" 
d="M212 477c0 -74 -16 -114 -73 -133c57 -19 73 -58 73 -133v-91c0 -62 39 -103 99 -103v-74c-105 0 -175 71 -175 177v89c0 80 -27 101 -98 101v68c71 0 98 21 98 101v90c0 106 70 176 175 176v-74c-60 0 -99 -41 -99 -102v-92z" />
    <glyph glyph-name="braceright.case" horiz-adv-x="363" 
d="M151 477v92c0 61 -39 102 -99 102v74c105 0 175 -70 175 -176v-90c0 -80 27 -101 98 -101v-68c-71 0 -98 -21 -98 -101v-89c0 -106 -70 -177 -175 -177v74c60 0 99 41 99 103v91c0 75 16 114 73 133c-57 19 -73 59 -73 133z" />
    <glyph glyph-name="bracketleft.case" horiz-adv-x="353" 
d="M169 657v-631h139v-74h-215v778h215v-73h-139z" />
    <glyph glyph-name="bracketright.case" horiz-adv-x="353" 
d="M184 657h-139v73h215v-778h-215v74h139v631z" />
    <glyph glyph-name="parenleft.case" horiz-adv-x="341" 
d="M144 339c0 -157 52 -236 162 -337l-49 -51c-130 109 -193 218 -193 388c0 169 63 284 193 392l49 -50c-110 -101 -162 -186 -162 -342z" />
    <glyph glyph-name="parenright.case" horiz-adv-x="341" 
d="M84 731c130 -108 193 -223 193 -392c0 -170 -63 -279 -193 -388l-49 51c110 101 162 180 162 337c0 156 -52 241 -162 342z" />
    <glyph glyph-name="emdash" unicode="&#x2014;" horiz-adv-x="1011" 
d="M115 238h781v66h-781v-66z" />
    <glyph glyph-name="endash" unicode="&#x2013;" horiz-adv-x="727" 
d="M115 238h497v66h-497v-66z" />
    <glyph glyph-name="hyphen" unicode="-" horiz-adv-x="562" 
d="M115 235h332v70h-332v-70z" />
    <glyph glyph-name="emdash.case" horiz-adv-x="1011" 
d="M115 304h781v66h-781v-66z" />
    <glyph glyph-name="endash.case" horiz-adv-x="727" 
d="M115 303h497v66h-497v-66z" />
    <glyph glyph-name="hyphen.case" horiz-adv-x="562" 
d="M115 300h332v70h-332v-70z" />
    <glyph glyph-name="guillemotleft" unicode="&#xab;" horiz-adv-x="433" 
d="M150 401h75l-107 -149l107 -149h-75l-107 149zM315 401h75l-107 -149l107 -149h-75l-107 149z" />
    <glyph glyph-name="guillemotright" unicode="&#xbb;" horiz-adv-x="433" 
d="M118 401l107 -149l-107 -149h-75l107 149l-107 149h75zM283 401l107 -149l-107 -149h-75l107 149l-107 149h75z" />
    <glyph glyph-name="guilsinglleft" unicode="&#x2039;" horiz-adv-x="268" 
d="M150 401h75l-107 -149l107 -149h-75l-107 149z" />
    <glyph glyph-name="guilsinglright" unicode="&#x203a;" horiz-adv-x="268" 
d="M118 401l107 -149l-107 -149h-75l107 149l-107 149h75z" />
    <glyph glyph-name="quotedblbase" unicode="&#x201e;" horiz-adv-x="365" 
d="M40 -128l49 129c-21 8 -32 23 -32 42c0 28 22 49 50 49c29 0 51 -21 51 -49c0 -11 0 -18 -16 -49l-54 -122h-48zM207 -128l49 129c-21 8 -32 23 -32 42c0 28 22 49 50 49c29 0 51 -21 51 -49c0 -11 0 -18 -16 -49l-54 -122h-48z" />
    <glyph glyph-name="quotedblleft" unicode="&#x201c;" horiz-adv-x="363" 
d="M158 702l-49 -129c21 -8 32 -23 32 -42c0 -28 -22 -49 -50 -49c-29 0 -51 21 -51 49c0 11 0 18 16 49l54 122h48zM323 702l-49 -129c21 -8 32 -23 32 -42c0 -28 -22 -49 -50 -49c-29 0 -51 21 -51 49c0 11 0 18 16 49l54 122h48z" />
    <glyph glyph-name="quotedblright" unicode="&#x201d;" horiz-adv-x="364" 
d="M40 483l49 129c-21 8 -32 23 -32 42c0 28 22 49 50 49c29 0 51 -21 51 -49c0 -11 0 -18 -16 -49l-54 -122h-48zM206 483l49 129c-21 8 -32 23 -32 42c0 28 22 49 50 49c29 0 51 -21 51 -49c0 -11 0 -18 -16 -49l-54 -122h-48z" />
    <glyph glyph-name="quoteleft" unicode="&#x2018;" horiz-adv-x="198" 
d="M158 702l-49 -129c21 -8 32 -23 32 -42c0 -28 -22 -49 -50 -49c-29 0 -51 21 -51 49c0 11 0 18 16 49l54 122h48z" />
    <glyph glyph-name="quoteright" unicode="&#x2019;" horiz-adv-x="198" 
d="M40 483l49 129c-21 8 -32 23 -32 42c0 28 22 49 50 49c29 0 51 -21 51 -49c0 -11 0 -18 -16 -49l-54 -122h-48z" />
    <glyph glyph-name="quotesinglbase" unicode="&#x201a;" horiz-adv-x="198" 
d="M40 -128l49 129c-21 8 -32 23 -32 42c0 28 22 49 50 49c29 0 51 -21 51 -49c0 -11 0 -18 -16 -49l-54 -122h-48z" />
    <glyph glyph-name="guillemotleft.case" horiz-adv-x="433" 
d="M150 486h75l-107 -149l107 -149h-75l-107 149zM315 486h75l-107 -149l107 -149h-75l-107 149z" />
    <glyph glyph-name="guillemotright.case" horiz-adv-x="433" 
d="M118 486l107 -149l-107 -149h-75l107 149l-107 149h75zM283 486l107 -149l-107 -149h-75l107 149l-107 149h75z" />
    <glyph glyph-name="guilsinglleft.case" horiz-adv-x="268" 
d="M150 486h75l-107 -149l107 -149h-75l-107 149z" />
    <glyph glyph-name="guilsinglright.case" horiz-adv-x="268" 
d="M118 486l107 -149l-107 -149h-75l107 149l-107 149h75z" />
    <glyph glyph-name="space" unicode=" " horiz-adv-x="270" 
 />
    <glyph glyph-name="cent" unicode="&#xa2;" horiz-adv-x="577" 
d="M301 58c72 0 126 39 140 100h79c-16 -91 -89 -155 -185 -168v-114h-69v114c-123 16 -208 117 -208 242s85 226 208 242v125h69v-125c96 -13 169 -78 185 -169h-79c-14 61 -68 101 -140 101c-101 0 -167 -78 -167 -174c0 -97 66 -174 167 -174z" />
    <glyph glyph-name="dollar" unicode="$" horiz-adv-x="662" 
d="M406 371c122 -24 191 -79 191 -179c0 -114 -86 -190 -218 -202v-119h-70v118c-144 11 -237 92 -251 229h78c16 -102 89 -159 210 -159c104 0 170 47 170 124c0 54 -37 96 -123 111l-127 25c-121 23 -179 85 -179 178c0 113 88 187 222 194v123h70v-125
c113 -13 204 -73 219 -196h-79c-15 81 -72 131 -183 131c-100 0 -165 -45 -165 -122c0 -60 43 -94 124 -110z" />
    <glyph glyph-name="Euro" unicode="&#x20ac;" horiz-adv-x="881" 
d="M493 61c124 0 214 72 242 182h82c-32 -153 -157 -256 -324 -256c-157 0 -290 98 -337 241h-113v56h100c-3 18 -4 37 -4 56c0 13 1 26 2 38h-98v56h108c41 152 178 258 342 258c167 0 292 -102 324 -255h-82c-28 111 -118 181 -242 181c-122 0 -222 -74 -259 -184h323
l-14 -56h-322c-1 -12 -2 -25 -2 -38c0 -19 2 -38 5 -56h296l-14 -56h-265c41 -100 137 -167 252 -167z" />
    <glyph glyph-name="florin" unicode="&#x192;" horiz-adv-x="505" 
d="M395 615c-64 0 -97 -43 -106 -109l-19 -137h170v-65h-178l-28 -214c-14 -108 -70 -180 -171 -180c-28 0 -64 5 -98 14l11 66c26 -5 54 -9 74 -9c64 0 97 43 106 109l28 214h-130v65h138l19 137c14 107 70 179 171 179c28 0 63 -4 98 -14l-12 -66c-25 6 -53 10 -73 10z
" />
    <glyph glyph-name="sterling" unicode="&#xa3;" horiz-adv-x="628" 
d="M192 282v-215h386v-67h-535v67h73v215h-73v67h73v114c0 138 94 229 236 229c130 0 220 -77 234 -197h-78c-12 80 -71 129 -156 129c-96 0 -160 -63 -160 -161v-114h233v-67h-233z" />
    <glyph glyph-name="uni20B9" unicode="&#x20b9;" horiz-adv-x="617" 
d="M544 680v-63h-186c36 -32 60 -74 66 -125h120v-63h-120c-16 -110 -111 -175 -242 -184l286 -245h-114l-281 243v73h99c93 0 158 42 173 113h-266v63h266c-13 73 -78 115 -173 115h-99v73h471z" />
    <glyph glyph-name="yen" unicode="&#xa5;" horiz-adv-x="669" 
d="M654 680l-262 -412h166v-58h-183v-65h183v-58h-183v-87h-80v87h-184v58h184v65h-184v58h167l-263 412h88l232 -364l231 364h88z" />
    <glyph glyph-name="cent.tf" horiz-adv-x="670" 
d="M347 58c72 0 126 39 140 100h79c-16 -91 -89 -155 -185 -168v-114h-69v114c-123 16 -208 117 -208 242s85 226 208 242v125h69v-125c96 -13 169 -78 185 -169h-79c-14 61 -68 101 -140 101c-101 0 -167 -78 -167 -174c0 -97 66 -174 167 -174z" />
    <glyph glyph-name="dollar.tf" horiz-adv-x="670" 
d="M409 371c122 -24 191 -79 191 -179c0 -114 -86 -190 -218 -202v-119h-70v118c-144 11 -237 92 -251 229h78c16 -102 89 -159 210 -159c104 0 170 47 170 124c0 54 -37 96 -123 111l-127 25c-121 23 -179 85 -179 178c0 113 88 187 222 194v123h70v-125
c113 -13 204 -73 219 -196h-79c-15 81 -72 131 -183 131c-100 0 -165 -45 -165 -122c0 -60 43 -94 124 -110z" />
    <glyph glyph-name="Euro.tf" horiz-adv-x="670" 
d="M382 60c60 0 107 18 133 56h95c-39 -81 -120 -128 -228 -128c-150 0 -250 94 -283 240h-58v56h49c-2 18 -3 37 -3 56c0 13 0 26 1 38h-47v56h54c29 156 131 258 287 258c115 0 200 -54 238 -146h-90c-26 49 -80 75 -148 75c-111 0 -181 -74 -206 -187h304l-14 -56h-298
c-1 -12 -1 -25 -1 -38c0 -19 1 -38 3 -56h273l-14 -56h-248c27 -103 96 -168 201 -168z" />
    <glyph glyph-name="florin.tf" horiz-adv-x="670" 
d="M509 615c-64 0 -97 -43 -106 -109l-19 -137h170v-65h-178l-28 -214c-14 -108 -70 -180 -171 -180c-28 0 -64 5 -98 14l11 66c26 -5 54 -9 74 -9c64 0 97 43 106 109l28 214h-130v65h138l19 137c14 107 70 179 171 179c28 0 63 -4 98 -14l-12 -66c-25 6 -53 10 -73 10z
" />
    <glyph glyph-name="uni20B9.tf" horiz-adv-x="670" 
d="M591 680v-63h-186c36 -32 60 -74 66 -125h120v-63h-120c-16 -110 -111 -175 -242 -184l286 -245h-114l-281 243v73h99c93 0 158 42 173 113h-266v63h266c-13 73 -78 115 -173 115h-99v73h471z" />
    <glyph glyph-name="sterling.tf" horiz-adv-x="670" 
d="M213 282v-215h386v-67h-535v67h73v215h-73v67h73v114c0 138 94 229 236 229c130 0 220 -77 234 -197h-78c-12 80 -71 129 -156 129c-96 0 -160 -63 -160 -161v-114h233v-67h-233z" />
    <glyph glyph-name="yen.tf" horiz-adv-x="670" 
d="M610 680l-220 -412h169v-58h-183v-65h183v-58h-183v-87h-80v87h-184v58h184v65h-184v58h170l-221 412h88l187 -356l186 356h88z" />
    <glyph glyph-name="plus" unicode="+" horiz-adv-x="693" 
d="M578 289h-194v-191h-74v191h-195v71h195v191h74v-191h194v-71z" />
    <glyph glyph-name="minus" unicode="&#x2212;" horiz-adv-x="692" 
d="M115 289v71h462v-71h-462z" />
    <glyph glyph-name="multiply" unicode="&#xd7;" horiz-adv-x="666" 
d="M384 319l155 -156l-50 -50l-156 156l-156 -156l-50 50l156 156l-156 156l50 50l156 -155l156 155l50 -50z" />
    <glyph glyph-name="divide" unicode="&#xf7;" horiz-adv-x="692" 
d="M346 463c-27 0 -49 21 -49 48c0 28 22 49 49 49c28 0 50 -21 50 -49c0 -27 -22 -48 -50 -48zM115 289v71h462v-71h-462zM346 91c-27 0 -49 21 -49 48c0 28 22 49 49 49c28 0 50 -21 50 -49c0 -27 -22 -48 -50 -48z" />
    <glyph glyph-name="equal" unicode="=" horiz-adv-x="712" 
d="M597 459v-71h-482v71h482zM597 264v-71h-482v71h482z" />
    <glyph glyph-name="greater" unicode="&#x3e;" horiz-adv-x="552" 
d="M497 341v-77l-422 -200v77l338 162l-338 161v77z" />
    <glyph glyph-name="less" unicode="&#x3c;" horiz-adv-x="552" 
d="M55 341l422 200v-77l-338 -161l338 -162v-77l-422 200v77z" />
    <glyph glyph-name="plusminus" unicode="&#xb1;" horiz-adv-x="692" 
d="M577 395v-71h-193v-155h-74v155h-195v71h195v156h74v-156h193zM115 115h462v-71h-462v71z" />
    <glyph glyph-name="asciitilde" unicode="~" horiz-adv-x="456" 
d="M411 397c0 -115 -103 -136 -162 -100l-62 42c-37 23 -74 5 -74 -38h-68c0 115 104 135 162 100l63 -42c37 -23 74 -5 74 38h67z" />
    <glyph glyph-name="percent" unicode="%" horiz-adv-x="1085" 
d="M279 692c106 0 189 -78 189 -189c0 -112 -83 -191 -189 -191c-107 0 -190 79 -190 191c0 111 83 189 190 189zM794 680l-455 -680h-57l454 680h58zM279 370c71 0 129 55 129 133c0 77 -58 132 -129 132c-72 0 -130 -55 -130 -132c0 -78 58 -133 130 -133zM806 368
c107 0 190 -78 190 -189c0 -112 -83 -191 -190 -191c-106 0 -189 79 -189 191c0 111 83 189 189 189zM806 46c72 0 130 55 130 133c0 77 -58 132 -130 132c-71 0 -129 -55 -129 -132c0 -78 58 -133 129 -133z" />
    <glyph glyph-name="perthousand" unicode="&#x2030;" horiz-adv-x="1535" 
d="M279 692c106 0 189 -78 189 -189c0 -112 -83 -191 -189 -191c-107 0 -190 79 -190 191c0 111 83 189 190 189zM794 680l-454 -680h-58l455 680h57zM279 370c71 0 129 55 129 133c0 77 -58 132 -129 132c-72 0 -130 -55 -130 -132c0 -78 58 -133 130 -133zM806 368
c107 0 190 -78 190 -189c0 -112 -83 -191 -190 -191c-106 0 -189 79 -189 191c0 111 83 189 189 189zM1256 368c107 0 190 -78 190 -189c0 -112 -83 -191 -190 -191c-106 0 -189 79 -189 191c0 111 83 189 189 189zM806 46c72 0 130 55 130 133c0 77 -58 132 -130 132
c-71 0 -129 -55 -129 -132c0 -78 58 -133 129 -133zM1256 46c72 0 130 55 130 133c0 77 -58 132 -130 132c-71 0 -129 -55 -129 -132c0 -78 58 -133 129 -133z" />
    <glyph glyph-name="arrowup" unicode="&#x2191;" horiz-adv-x="782" 
d="M356 0v557l-260 -262l-51 51l347 346l346 -346l-51 -51l-259 262v-557h-72z" />
    <glyph glyph-name="uni2197" unicode="&#x2197;" horiz-adv-x="829" 
d="M58 49l558 559h-367v72h490v-490h-72v367l-558 -559z" />
    <glyph glyph-name="arrowright" unicode="&#x2192;" horiz-adv-x="766" 
d="M40 306v72h557l-262 259l51 51l346 -346l-346 -347l-51 51l262 260h-557z" />
    <glyph glyph-name="uni2198" unicode="&#x2198;" horiz-adv-x="809" 
d="M38 631l51 51l558 -559v367h72v-490h-490v72h367z" />
    <glyph glyph-name="arrowdown" unicode="&#x2193;" horiz-adv-x="782" 
d="M356 680h72v-557l259 262l51 -51l-346 -346l-347 346l51 51l260 -262v557z" />
    <glyph glyph-name="uni2199" unicode="&#x2199;" horiz-adv-x="796" 
d="M771 631l-558 -559h367v-72h-490v490h72v-367l558 559z" />
    <glyph glyph-name="arrowleft" unicode="&#x2190;" horiz-adv-x="766" 
d="M726 306h-557l262 -260l-51 -51l-346 347l346 346l51 -51l-262 -259h557v-72z" />
    <glyph glyph-name="uni2196" unicode="&#x2196;" horiz-adv-x="809" 
d="M771 49l-51 -51l-558 559v-367h-72v490h490v-72h-367z" />
    <glyph glyph-name="arrowup.ss05" horiz-adv-x="561" 
d="M440 342l-249 -249l-48 47l203 202l-204 203l48 47z" />
    <glyph glyph-name="arrowright.ss05" horiz-adv-x="571" 
d="M418 545l-204 -203l203 -202l-48 -47l-249 249l250 250z" />
    <glyph glyph-name="arrowdown.ss05" horiz-adv-x="689" 
d="M547 453l47 -48l-249 -249l-250 250l47 48l203 -204z" />
    <glyph glyph-name="arrowleft.ss05" horiz-adv-x="689" 
d="M594 208l-47 -48l-202 203l-203 -204l-47 48l250 250z" />
    <glyph glyph-name="at" unicode="@" horiz-adv-x="991" 
d="M614 417h69v-217c0 -69 21 -106 72 -106c68 0 103 61 103 151c0 195 -160 347 -359 347s-364 -155 -364 -354c0 -201 166 -354 361 -354c85 0 167 29 231 80l33 -48c-73 -57 -166 -88 -263 -88c-231 0 -422 174 -422 410c0 234 191 410 424 410c234 0 417 -173 417 -402
c0 -117 -48 -211 -161 -211c-68 0 -104 28 -122 68c-36 -43 -89 -71 -152 -71c-110 0 -196 85 -196 200s86 199 196 199c53 0 99 -19 133 -51v37zM492 94c45 0 93 21 125 70c-2 16 -3 32 -3 49v90c-30 44 -76 67 -122 67c-72 0 -137 -53 -137 -138c0 -84 64 -138 137 -138z
" />
    <glyph glyph-name="ampersand" unicode="&#x26;" horiz-adv-x="729" 
d="M701 0h-102l-89 80c-59 -61 -131 -93 -219 -93c-145 0 -241 83 -241 201c0 90 59 156 138 188c-43 49 -63 90 -63 140c0 105 84 179 198 179c108 0 184 -68 197 -182h-76c-10 75 -58 114 -122 114c-69 0 -118 -46 -118 -113c0 -72 60 -122 174 -222l125 -113l106 153h80
l-131 -192c-2 -2 -3 -4 -5 -7zM292 55c64 0 120 25 167 71l-146 131c-29 26 -55 49 -77 70c-66 -26 -111 -74 -111 -138c0 -76 68 -134 167 -134z" />
    <glyph glyph-name="paragraph" unicode="&#xb6;" horiz-adv-x="743" 
d="M281 680h381v-840h-79v772h-131v-772h-79v388h-92c-138 0 -246 92 -246 230c0 133 108 222 246 222zM373 612h-92c-96 0 -168 -62 -168 -155c0 -94 72 -157 168 -157h92v312z" />
    <glyph glyph-name="section" unicode="&#xa7;" horiz-adv-x="542" 
d="M502 225c0 -65 -39 -105 -88 -125c28 -27 44 -61 44 -104c0 -98 -80 -155 -188 -155c-115 0 -192 66 -206 171h82c8 -62 52 -102 124 -102c62 0 109 31 109 88c0 47 -28 72 -98 104l-105 49c-98 45 -136 91 -136 156s40 105 89 124c-29 28 -44 61 -44 104
c0 98 80 155 187 155c115 0 193 -66 206 -170h-82c-8 61 -51 102 -123 102c-63 0 -109 -33 -109 -89c0 -46 28 -70 97 -103l106 -49c96 -46 135 -91 135 -156zM348 146c43 6 77 34 77 78c0 38 -27 65 -93 96l-107 51c-10 5 -20 9 -29 14c-44 -4 -79 -33 -79 -78
c0 -37 27 -65 93 -96l108 -50c11 -5 21 -10 30 -15z" />
    <glyph glyph-name="copyright" unicode="&#xa9;" horiz-adv-x="856" 
d="M428 695c198 0 364 -152 364 -355s-166 -355 -364 -355s-364 152 -364 355s166 355 364 355zM427 38c166 0 309 131 309 302s-143 303 -309 303c-165 0 -308 -132 -308 -303s143 -302 308 -302zM428 466c-69 0 -123 -57 -123 -127s54 -126 123 -126c53 0 98 31 112 77h61
c-17 -79 -87 -132 -172 -132c-102 0 -183 79 -183 181c0 103 81 182 183 182c85 0 155 -54 172 -132h-61c-14 45 -59 77 -112 77z" />
    <glyph glyph-name="registered" unicode="&#xae;" horiz-adv-x="556" 
d="M278 694c130 0 238 -100 238 -232c0 -133 -108 -232 -238 -232c-129 0 -238 99 -238 232c0 132 109 232 238 232zM278 272c103 0 192 83 192 190s-89 190 -192 190s-192 -83 -192 -190s89 -190 192 -190zM374 503c0 -36 -23 -61 -57 -70l64 -78h-44l-61 75h-44v-75h-34
v223h93c47 0 83 -30 83 -75zM232 546v-84h58c28 0 48 16 48 42c0 25 -20 42 -48 42h-58z" />
    <glyph glyph-name="uni2117" unicode="&#x2117;" horiz-adv-x="856" 
d="M428 695c198 0 364 -152 364 -355s-166 -355 -364 -355s-364 152 -364 355s166 355 364 355zM428 643c-166 0 -308 -132 -308 -303s142 -302 308 -302c165 0 309 131 309 302s-144 303 -309 303zM449 523c84 0 140 -47 140 -118s-56 -116 -141 -116h-84v-120h-49v354h134
zM449 477h-85v-144h85c55 0 90 29 90 72s-35 72 -90 72z" />
    <glyph glyph-name="trademark" unicode="&#x2122;" horiz-adv-x="685" 
d="M283 679v-43h-106v-249h-46v249h-106v43h258zM635 679v-292h-46v197l-98 -158h-24l-99 160l1 -199h-46v292h36l120 -191l119 191h37z" />
    <glyph glyph-name="degree" unicode="&#xb0;" horiz-adv-x="484" 
d="M242 695c96 0 168 -70 168 -164c0 -93 -72 -164 -168 -164s-168 71 -168 164c0 94 72 164 168 164zM242 426c59 0 107 47 107 105c0 59 -48 106 -107 106s-107 -47 -107 -106c0 -58 48 -105 107 -105z" />
    <glyph glyph-name="bar" unicode="|" horiz-adv-x="312" 
d="M120 730h72v-890h-72v890z" />
    <glyph glyph-name="brokenbar" unicode="&#xa6;" horiz-adv-x="312" 
d="M192 730v-394h-72v394h72zM192 234v-394h-72v394h72z" />
    <glyph glyph-name="dagger" unicode="&#x2020;" horiz-adv-x="406" 
d="M354 547h-124v-219h-54v219h-123v53h123v124h54v-124h124v-53z" />
    <glyph glyph-name="daggerdbl" unicode="&#x2021;" horiz-adv-x="406" 
d="M230 568v-77h124v-53h-124v-110h-54v110h-123v53h123v77h-123v53h123v103h54v-103h124v-53h-124z" />
    <glyph glyph-name="uni2116" unicode="&#x2116;" horiz-adv-x="1394" 
d="M594 137v543h79v-680h-66l-435 536v-536h-79v680h64zM1056 157c-142 0 -247 104 -247 244s105 244 247 244c141 0 246 -104 246 -244s-105 -244 -246 -244zM1056 575c-98 0 -171 -74 -171 -174s73 -174 171 -174c97 0 169 74 169 174s-72 174 -169 174zM821 0v68h468v-68
h-468z" />
    <glyph glyph-name="asciicircum" unicode="^" horiz-adv-x="397" 
d="M233 680l134 -235h-71l-97 177l-98 -177h-71l134 235h69z" />
    <glyph glyph-name="at.case" horiz-adv-x="991" 
d="M614 487h69v-217c0 -69 21 -106 72 -106c68 0 103 61 103 151c0 195 -160 347 -359 347s-364 -155 -364 -354c0 -201 166 -354 361 -354c85 0 167 29 231 80l33 -48c-73 -57 -166 -88 -263 -88c-231 0 -422 174 -422 410c0 234 191 410 424 410c234 0 417 -173 417 -402
c0 -117 -48 -211 -161 -211c-68 0 -104 28 -122 68c-36 -43 -89 -71 -152 -71c-110 0 -196 85 -196 200s86 199 196 199c53 0 99 -19 133 -51v37zM492 164c45 0 93 21 125 70c-2 16 -3 32 -3 49v90c-30 44 -76 67 -122 67c-72 0 -137 -53 -137 -138c0 -84 64 -138 137 -138z
" />
    <glyph glyph-name="bar.case" horiz-adv-x="312" 
d="M120 730h72v-777h-72v777z" />
    <glyph glyph-name="brokenbar.case" horiz-adv-x="312" 
d="M192 730v-338h-72v338h72zM192 290v-337h-72v337h72z" />
    <glyph glyph-name="registered.ss07" horiz-adv-x="856" 
d="M428 695c198 0 364 -152 364 -355s-166 -355 -364 -355s-364 152 -364 355s166 355 364 355zM428 38c165 0 309 131 309 302s-144 303 -309 303c-166 0 -308 -132 -308 -303s142 -302 308 -302zM579 405c0 -57 -36 -97 -94 -111l105 -125h-62l-99 120h-75v-120h-49v354
h134c84 0 140 -47 140 -118zM354 477v-144h85c55 0 90 29 90 72s-35 72 -90 72h-85z" />
    <glyph glyph-name="uni0326" unicode="&#x326;" horiz-adv-x="0" 
d="M-361 -239l37 87c-24 6 -35 22 -35 42c0 26 22 47 50 47c25 0 49 -19 49 -48c0 -21 -5 -28 -56 -128h-45z" />
    <glyph glyph-name="acute" unicode="&#xb4;" 
d="M334 706h85l-94 -143h-71z" />
    <glyph glyph-name="breve" unicode="&#x2d8;" 
d="M445 690c0 -94 -67 -142 -145 -142s-144 48 -144 142h57c0 -63 44 -89 87 -89s87 26 87 89h58z" />
    <glyph glyph-name="caron" unicode="&#x2c7;" 
d="M387 705h74l-122 -145h-77l-123 145h74l88 -97z" />
    <glyph glyph-name="cedilla" unicode="&#xb8;" 
d="M346 -68l-55 -147h-66l46 147h75z" />
    <glyph glyph-name="circumflex" unicode="&#x2c6;" 
d="M387 560l-86 97l-88 -97h-74l123 145h77l122 -145h-74z" />
    <glyph glyph-name="dieresis" unicode="&#xa8;" 
d="M205 665c30 0 53 -23 53 -52s-23 -51 -53 -51c-29 0 -53 22 -53 51s24 52 53 52zM396 665c29 0 53 -23 53 -52s-24 -51 -53 -51c-30 0 -53 22 -53 51s23 52 53 52z" />
    <glyph glyph-name="dotaccent" unicode="&#x2d9;" 
d="M300 562c-29 0 -53 22 -53 51s24 52 53 52c30 0 53 -23 53 -52s-23 -51 -53 -51z" />
    <glyph glyph-name="grave" unicode="`" 
d="M289 706l80 -143h-71l-94 143h85z" />
    <glyph glyph-name="hungarumlaut" unicode="&#x2dd;" 
d="M264 706h80l-83 -143h-66zM401 706h80l-84 -143h-65z" />
    <glyph glyph-name="macron" unicode="&#xaf;" 
d="M161 645h278v-63h-278v63z" />
    <glyph glyph-name="ogonek" unicode="&#x2db;" 
d="M366 -1c-48 -14 -82 -35 -82 -74c0 -32 27 -52 75 -52c13 0 23 2 35 4l8 -58c-11 -4 -33 -8 -53 -8c-78 0 -131 42 -131 106c0 63 63 106 137 121z" />
    <glyph glyph-name="ring" unicode="&#x2da;" 
d="M299 749c59 0 101 -40 101 -97s-42 -98 -101 -98c-60 0 -102 41 -102 98s42 97 102 97zM299 596c32 0 55 24 55 56c0 31 -23 55 -55 55s-56 -24 -56 -55c0 -32 24 -56 56 -56z" />
    <glyph glyph-name="tilde" unicode="&#x2dc;" 
d="M457 684c0 -101 -89 -124 -148 -86l-43 28c-37 24 -68 7 -68 -30h-62c0 102 92 121 148 86l42 -27c40 -27 69 -7 69 29h62z" />
    <glyph glyph-name="caron.alt" 
d="M261 680h78l-28 -187h-59z" />
    <glyph glyph-name="acute.case" 
d="M334 881h85l-94 -143h-71z" />
    <glyph glyph-name="breve.case" 
d="M445 885c0 -94 -67 -142 -145 -142s-144 48 -144 142h57c0 -63 44 -89 87 -89s87 26 87 89h58z" />
    <glyph glyph-name="caron.case" 
d="M387 880h74l-122 -145h-77l-123 145h74l88 -97z" />
    <glyph glyph-name="circumflex.case" 
d="M387 735l-86 97l-88 -97h-74l123 145h77l122 -145h-74z" />
    <glyph glyph-name="dieresis.case" 
d="M205 860c30 0 53 -23 53 -52s-23 -51 -53 -51c-29 0 -53 22 -53 51s24 52 53 52zM396 860c29 0 53 -23 53 -52s-24 -51 -53 -51c-30 0 -53 22 -53 51s23 52 53 52z" />
    <glyph glyph-name="dotaccent.case" 
d="M300 757c-29 0 -53 22 -53 51s24 52 53 52c30 0 53 -23 53 -52s-23 -51 -53 -51z" />
    <glyph glyph-name="grave.case" 
d="M289 881l80 -143h-71l-94 143h85z" />
    <glyph glyph-name="hungarumlaut.case" 
d="M264 881h80l-83 -143h-66zM401 881h80l-84 -143h-65z" />
    <glyph glyph-name="macron.case" 
d="M161 820h278v-63h-278v63z" />
    <glyph glyph-name="ring.case" 
d="M299 944c59 0 101 -40 101 -97s-42 -98 -101 -98c-60 0 -102 41 -102 98s42 97 102 97zM299 791c32 0 55 24 55 56c0 31 -23 55 -55 55s-56 -24 -56 -55c0 -32 24 -56 56 -56z" />
    <glyph glyph-name="tilde.case" 
d="M457 859c0 -101 -89 -124 -148 -86l-43 28c-37 24 -68 7 -68 -30h-62c0 102 92 121 148 86l42 -27c40 -27 69 -7 69 29h62z" />
    </font>
</defs>
</svg>
