<?xml version="1.0" standalone="no"?>
<!DOCTYPE svg PUBLIC "-//W3C//DTD SVG 1.1//EN" "http://www.w3.org/Graphics/SVG/1.1/DTD/svg11.dtd" >
<svg xmlns="http://www.w3.org/2000/svg" xmlns:xlink="http://www.w3.org/1999/xlink" version="1.1">
<metadata>
Created by FontForge 20190801 at Thu Dec 21 22:56:41 2017
 By Jimmy Wärting
Copyright \(c\) 2017 by Ren_ Bieder. All rights reserved.
</metadata>
<defs>
<font id="Campton-Bold" horiz-adv-x="600" >
  <font-face 
    font-family="Campton Book"
    font-weight="700"
    font-stretch="normal"
    units-per-em="1000"
    panose-1="2 11 0 4 2 1 2 2 2 3"
    ascent="770"
    descent="-230"
    x-height="485"
    cap-height="680"
    bbox="-390 -265 1489 979"
    underline-thickness="50"
    underline-position="-100"
    stemh="140"
    stemv="166"
    unicode-range="U+0020-FB02"
  />
<missing-glyph horiz-adv-x="870" 
d="M100 680h670v-680h-670v680zM700 129v481h-481zM170 547v-477h477z" />
    <glyph glyph-name="fi" unicode="fi" horiz-adv-x="728" 
d="M673 485v-485h-162v346h-227v-346h-162v346h-119v139h119v28c0 141 95 219 219 219c39 0 73 -6 123 -19l-22 -129c-24 5 -53 9 -74 9c-52 0 -84 -31 -84 -80v-28h389z" />
    <glyph glyph-name="fl" unicode="fl" horiz-adv-x="728" 
d="M510 710h163v-710h-163v346h-226v-346h-162v346h-119v139h119v28c0 141 95 219 219 219c39 0 73 -6 123 -19l-22 -135c-24 8 -53 15 -74 15c-52 0 -84 -31 -84 -80v-28h226v225z" />
    <glyph glyph-name=".notdef" horiz-adv-x="870" 
d="M100 680h670v-680h-670v680zM700 129v481h-481zM170 547v-477h477z" />
    <glyph glyph-name="A" unicode="A" horiz-adv-x="763" 
d="M571 0l-46 117h-288l-45 -117h-180l289 680h162l288 -680h-180zM292 258h178l-89 229z" />
    <glyph glyph-name="Aacute" unicode="&#xc1;" horiz-adv-x="763" 
d="M558 910l-100 -160h-151l80 160h171zM571 0l-46 117h-288l-45 -117h-180l289 680h162l288 -680h-180zM292 258h178l-89 229z" />
    <glyph glyph-name="Abreve" unicode="&#x102;" horiz-adv-x="763" 
d="M381 748c-102 0 -175 59 -175 169h115c0 -45 26 -65 60 -65c33 0 60 20 60 65h115c0 -110 -73 -169 -175 -169zM571 0l-46 117h-288l-45 -117h-180l289 680h162l288 -680h-180zM292 258h178l-89 229z" />
    <glyph glyph-name="uni01CD" unicode="&#x1cd;" horiz-adv-x="763" 
d="M458 740h-156l-116 160h142l53 -66l51 66h142zM571 0l-46 117h-288l-45 -117h-180l289 680h162l288 -680h-180zM292 258h178l-89 229z" />
    <glyph glyph-name="Acircumflex" unicode="&#xc2;" horiz-adv-x="763" 
d="M381 816l-53 -66h-141l117 164h153l116 -164h-141zM571 0l-46 117h-288l-45 -117h-180l289 680h162l288 -680h-180zM292 258h178l-89 229z" />
    <glyph glyph-name="Adieresis" unicode="&#xc4;" horiz-adv-x="763" 
d="M270 745c-49 0 -88 36 -88 84s39 85 88 85c48 0 88 -37 88 -85s-40 -84 -88 -84zM491 745c-49 0 -89 36 -89 84s40 85 89 85c48 0 88 -37 88 -85s-40 -84 -88 -84zM571 0l-46 117h-288l-45 -117h-180l289 680h162l288 -680h-180zM292 258h178l-89 229z" />
    <glyph glyph-name="Agrave" unicode="&#xc0;" horiz-adv-x="763" 
d="M469 750h-151l-100 160h171zM571 0l-46 117h-288l-45 -117h-180l289 680h162l288 -680h-180zM292 258h178l-89 229z" />
    <glyph glyph-name="Amacron" unicode="&#x100;" horiz-adv-x="763" 
d="M524 875v-124h-286v124h286zM571 0l-46 117h-288l-45 -117h-180l289 680h162l288 -680h-180zM292 258h178l-89 229z" />
    <glyph glyph-name="Aogonek" unicode="&#x104;" horiz-adv-x="763" 
d="M746 -53l15 -120c-14 -7 -48 -14 -81 -14c-93 0 -164 46 -164 127c0 29 15 59 46 84l-37 93h-288l-45 -117h-180l289 680h162l288 -680h-72c-22 -8 -30 -18 -30 -32c0 -17 16 -28 50 -28c16 0 28 2 47 7zM292 258h178l-89 229z" />
    <glyph glyph-name="Aring" unicode="&#xc5;" horiz-adv-x="763" 
d="M381 748c-73 0 -124 47 -124 116s51 115 124 115s124 -46 124 -115s-51 -116 -124 -116zM381 906c-27 0 -44 -17 -44 -42c0 -26 17 -44 44 -44s44 18 44 44c0 25 -17 42 -44 42zM571 0l-46 117h-288l-45 -117h-180l289 680h162l288 -680h-180zM292 258h178l-89 229z" />
    <glyph glyph-name="Atilde" unicode="&#xc3;" horiz-adv-x="763" 
d="M350 782c-30 18 -40 -2 -40 -24h-119c0 145 119 172 189 132l38 -22c30 -18 40 2 40 24h119c0 -145 -119 -173 -189 -132zM571 0l-46 117h-288l-45 -117h-180l289 680h162l288 -680h-180zM292 258h178l-89 229z" />
    <glyph glyph-name="AE" unicode="&#xc6;" horiz-adv-x="1089" 
d="M1053 533h-345v-124h302v-144h-302v-118h345v-147h-514v117h-244l-79 -117h-204l479 680h562v-147zM392 261h147v219z" />
    <glyph glyph-name="B" unicode="B" horiz-adv-x="681" 
d="M522 350c83 -18 124 -88 124 -161c0 -113 -91 -189 -244 -189h-342v680h322c148 0 234 -70 234 -181c0 -63 -35 -128 -94 -149zM356 542h-127v-142h127c64 0 99 32 99 76c0 43 -34 66 -99 66zM380 140c70 0 101 31 101 71c0 42 -35 66 -98 66h-154v-137h151z" />
    <glyph glyph-name="C" unicode="C" horiz-adv-x="789" 
d="M403 145c90 0 150 52 168 137h174c-22 -176 -156 -295 -341 -295c-205 0 -360 148 -360 353s155 353 360 353c185 0 319 -119 341 -295h-174c-18 85 -78 137 -168 137c-111 0 -188 -82 -188 -195s77 -195 188 -195z" />
    <glyph glyph-name="Cacute" unicode="&#x106;" horiz-adv-x="789" 
d="M578 910l-100 -160h-151l80 160h171zM403 145c90 0 150 52 168 137h174c-22 -176 -156 -295 -341 -295c-205 0 -360 148 -360 353s155 353 360 353c185 0 319 -119 341 -295h-174c-18 85 -78 137 -168 137c-111 0 -188 -82 -188 -195s77 -195 188 -195z" />
    <glyph glyph-name="Ccaron" unicode="&#x10c;" horiz-adv-x="789" 
d="M478 740h-156l-116 160h142l53 -66l51 66h142zM403 145c90 0 150 52 168 137h174c-22 -176 -156 -295 -341 -295c-205 0 -360 148 -360 353s155 353 360 353c185 0 319 -119 341 -295h-174c-18 85 -78 137 -168 137c-111 0 -188 -82 -188 -195s77 -195 188 -195z" />
    <glyph glyph-name="Ccedilla" unicode="&#xc7;" horiz-adv-x="789" 
d="M403 145c90 0 150 52 168 137h174c-22 -176 -156 -295 -341 -295c-205 0 -360 148 -360 353s155 353 360 353c185 0 319 -119 341 -295h-174c-18 85 -78 137 -168 137c-111 0 -188 -82 -188 -195s77 -195 188 -195zM271 -215l54 164h152l-71 -164h-135z" />
    <glyph glyph-name="Cdotaccent" unicode="&#x10a;" horiz-adv-x="789" 
d="M401 743c-51 0 -92 38 -92 88s41 88 92 88c50 0 91 -38 91 -88s-41 -88 -91 -88zM403 145c90 0 150 52 168 137h174c-22 -176 -156 -295 -341 -295c-205 0 -360 148 -360 353s155 353 360 353c185 0 319 -119 341 -295h-174c-18 85 -78 137 -168 137
c-111 0 -188 -82 -188 -195s77 -195 188 -195z" />
    <glyph glyph-name="D" unicode="D" horiz-adv-x="744" 
d="M333 680c214 0 367 -139 367 -338c0 -202 -153 -342 -367 -342h-273v680h273zM333 152c111 0 196 82 196 190c0 105 -85 186 -196 186h-104v-376h104z" />
    <glyph glyph-name="Eth" unicode="&#xd0;" horiz-adv-x="737" 
d="M333 680c214 0 367 -139 367 -338c0 -202 -153 -342 -367 -342h-273v272h-56v133h56v275h273zM333 152c111 0 196 82 196 190c0 105 -85 186 -196 186h-104v-123h112v-133h-112v-120h104z" />
    <glyph glyph-name="Dcaron" unicode="&#x10e;" horiz-adv-x="744" 
d="M416 740h-156l-116 160h142l53 -66l51 66h142zM333 680c214 0 367 -139 367 -338c0 -202 -153 -342 -367 -342h-273v680h273zM333 152c111 0 196 82 196 190c0 105 -85 186 -196 186h-104v-376h104z" />
    <glyph glyph-name="Dcroat" unicode="&#x110;" horiz-adv-x="737" 
d="M333 680c214 0 367 -139 367 -338c0 -202 -153 -342 -367 -342h-273v272h-56v133h56v275h273zM333 152c111 0 196 82 196 190c0 105 -85 186 -196 186h-104v-123h112v-133h-112v-120h104z" />
    <glyph glyph-name="E" unicode="E" horiz-adv-x="610" 
d="M574 533h-345v-124h302v-144h-302v-118h345v-147h-514v680h514v-147z" />
    <glyph glyph-name="Eacute" unicode="&#xc9;" horiz-adv-x="610" 
d="M489 910l-100 -160h-151l80 160h171zM574 533h-345v-124h302v-144h-302v-118h345v-147h-514v680h514v-147z" />
    <glyph glyph-name="Ecaron" unicode="&#x11a;" horiz-adv-x="610" 
d="M389 740h-156l-116 160h142l53 -66l51 66h142zM574 533h-345v-124h302v-144h-302v-118h345v-147h-514v680h514v-147z" />
    <glyph glyph-name="Ecircumflex" unicode="&#xca;" horiz-adv-x="610" 
d="M312 816l-53 -66h-141l117 164h153l116 -164h-141zM574 533h-345v-124h302v-144h-302v-118h345v-147h-514v680h514v-147z" />
    <glyph glyph-name="Edieresis" unicode="&#xcb;" horiz-adv-x="610" 
d="M201 745c-49 0 -88 36 -88 84s39 85 88 85c48 0 88 -37 88 -85s-40 -84 -88 -84zM422 745c-49 0 -89 36 -89 84s40 85 89 85c48 0 88 -37 88 -85s-40 -84 -88 -84zM574 533h-345v-124h302v-144h-302v-118h345v-147h-514v680h514v-147z" />
    <glyph glyph-name="Edotaccent" unicode="&#x116;" horiz-adv-x="610" 
d="M312 743c-51 0 -92 38 -92 88s41 88 92 88c50 0 91 -38 91 -88s-41 -88 -91 -88zM574 533h-345v-124h302v-144h-302v-118h345v-147h-514v680h514v-147z" />
    <glyph glyph-name="Egrave" unicode="&#xc8;" horiz-adv-x="610" 
d="M400 750h-151l-100 160h171zM574 533h-345v-124h302v-144h-302v-118h345v-147h-514v680h514v-147z" />
    <glyph glyph-name="Emacron" unicode="&#x112;" horiz-adv-x="610" 
d="M455 875v-124h-286v124h286zM574 533h-345v-124h302v-144h-302v-118h345v-147h-514v680h514v-147z" />
    <glyph glyph-name="Eogonek" unicode="&#x118;" horiz-adv-x="610" 
d="M596 -56l15 -120c-14 -7 -48 -14 -81 -14c-93 0 -164 46 -164 127c0 21 8 43 24 63h-330v680h514v-147h-345v-124h302v-144h-302v-118h345v-147h-36c-29 -8 -39 -19 -39 -35c0 -17 16 -28 50 -28c16 0 28 2 47 7z" />
    <glyph glyph-name="F" unicode="F" horiz-adv-x="583" 
d="M568 531h-339v-144h292v-147h-292v-240h-169v680h508v-149z" />
    <glyph glyph-name="G" unicode="G" horiz-adv-x="809" 
d="M390 382h364v-382h-126l-7 83c-49 -60 -120 -96 -215 -96c-213 0 -362 151 -362 346c0 212 156 360 363 360c167 0 311 -93 340 -255h-178c-29 79 -97 102 -158 102c-117 0 -196 -83 -196 -203c0 -107 77 -196 197 -196c79 0 139 40 173 106l-195 2v133z" />
    <glyph glyph-name="Gbreve" unicode="&#x11e;" horiz-adv-x="809" 
d="M403 748c-102 0 -175 59 -175 169h115c0 -45 26 -65 60 -65c33 0 60 20 60 65h115c0 -110 -73 -169 -175 -169zM390 382h364v-382h-126l-7 83c-49 -60 -120 -96 -215 -96c-213 0 -362 151 -362 346c0 212 156 360 363 360c167 0 311 -93 340 -255h-178
c-29 79 -97 102 -158 102c-117 0 -196 -83 -196 -203c0 -107 77 -196 197 -196c79 0 139 40 173 106l-195 2v133z" />
    <glyph glyph-name="Gcommaaccent" unicode="&#x122;" horiz-adv-x="809" 
d="M390 382h364v-382h-126l-7 83c-49 -60 -120 -96 -215 -96c-213 0 -362 151 -362 346c0 212 156 360 363 360c167 0 311 -93 340 -255h-178c-29 79 -97 102 -158 102c-117 0 -196 -83 -196 -203c0 -107 77 -196 197 -196c79 0 139 40 173 106l-195 2v133zM403 -44
c46 0 84 -36 84 -80c0 -32 -11 -40 -79 -141h-83l41 74c-31 13 -48 39 -48 67c0 44 38 80 85 80z" />
    <glyph glyph-name="Gdotaccent" unicode="&#x120;" horiz-adv-x="809" 
d="M403 743c-51 0 -92 38 -92 88s41 88 92 88c50 0 91 -38 91 -88s-41 -88 -91 -88zM390 382h364v-382h-126l-7 83c-49 -60 -120 -96 -215 -96c-213 0 -362 151 -362 346c0 212 156 360 363 360c167 0 311 -93 340 -255h-178c-29 79 -97 102 -158 102
c-117 0 -196 -83 -196 -203c0 -107 77 -196 197 -196c79 0 139 40 173 106l-195 2v133z" />
    <glyph glyph-name="H" unicode="H" horiz-adv-x="734" 
d="M506 680h168v-680h-168v255h-277v-255h-169v680h169v-273h277v273z" />
    <glyph glyph-name="Hbar" unicode="&#x126;" horiz-adv-x="734" 
d="M712 593v-108h-38v-485h-168v255h-277v-255h-169v485h-45v108h45v87h169v-87h277v87h168v-87h38zM506 407v78h-277v-78h277z" />
    <glyph glyph-name="I" unicode="I" horiz-adv-x="289" 
d="M60 680h169v-680h-169v680z" />
    <glyph glyph-name="IJ" unicode="&#x132;" horiz-adv-x="902" 
d="M60 680h169v-680h-169v680zM852 680v-408c0 -185 -105 -285 -281 -285c-159 0 -267 91 -274 254h168c4 -66 49 -100 111 -100s104 46 104 131v408h172z" />
    <glyph glyph-name="Iacute" unicode="&#xcd;" horiz-adv-x="289" 
d="M150 910h171l-100 -160h-151zM60 680h169v-680h-169v680z" />
    <glyph glyph-name="Icircumflex" unicode="&#xce;" horiz-adv-x="289" 
d="M195 750l-51 66l-53 -66h-141l117 164h153l116 -164h-141zM60 680h169v-680h-169v680z" />
    <glyph glyph-name="Idieresis" unicode="&#xcf;" horiz-adv-x="289" 
d="M33 914c48 0 88 -37 88 -85s-40 -84 -88 -84c-49 0 -88 36 -88 84s39 85 88 85zM254 914c48 0 88 -37 88 -85s-40 -84 -88 -84c-49 0 -89 36 -89 84s40 85 89 85zM60 680h169v-680h-169v680z" />
    <glyph glyph-name="Idotaccent" unicode="&#x130;" horiz-adv-x="289" 
d="M144 745c-53 0 -95 39 -95 91s42 91 95 91c52 0 94 -39 94 -91s-42 -91 -94 -91zM60 680h169v-680h-169v680z" />
    <glyph glyph-name="Igrave" unicode="&#xcc;" horiz-adv-x="289" 
d="M152 910l80 -160h-151l-100 160h171zM60 680h169v-680h-169v680z" />
    <glyph glyph-name="Imacron" unicode="&#x12a;" horiz-adv-x="289" 
d="M1 875h286v-124h-286v124zM60 680h169v-680h-169v680z" />
    <glyph glyph-name="Iogonek" unicode="&#x12e;" horiz-adv-x="289" 
d="M249 -56l15 -120c-14 -7 -48 -14 -81 -14c-93 0 -164 46 -164 127c0 28 13 56 41 80v663h169v-680h-38c-29 -8 -39 -19 -39 -35c0 -17 16 -28 50 -28c16 0 28 2 47 7z" />
    <glyph glyph-name="J" unicode="J" horiz-adv-x="623" 
d="M573 680v-408c0 -185 -105 -285 -281 -285c-159 0 -267 91 -274 254h168c4 -66 49 -100 111 -100s104 46 104 131v408h172z" />
    <glyph glyph-name="K" unicode="K" horiz-adv-x="728" 
d="M511 0l-182 254l-100 -116v-138h-169v680h169v-312l271 312h200l-259 -298l281 -382h-211z" />
    <glyph glyph-name="Kcommaaccent" unicode="&#x136;" horiz-adv-x="728" 
d="M441 382l281 -382h-211l-182 254l-100 -116v-138h-169v680h169v-312l271 312h200zM364 -44c46 0 84 -36 84 -80c0 -32 -11 -40 -79 -141h-83l41 74c-31 13 -48 39 -48 67c0 44 38 80 85 80z" />
    <glyph glyph-name="L" unicode="L" horiz-adv-x="585" 
d="M229 151h336v-151h-505v680h169v-529z" />
    <glyph glyph-name="Lacute" unicode="&#x139;" horiz-adv-x="585" 
d="M321 910l-100 -160h-151l80 160h171zM229 151h336v-151h-505v680h169v-529z" />
    <glyph glyph-name="Lcaron" unicode="&#x13d;" horiz-adv-x="585" 
d="M229 151h336v-151h-505v680h169v-529zM485 680l-39 -204h-115l6 204h148z" />
    <glyph glyph-name="Lcommaaccent" unicode="&#x13b;" horiz-adv-x="585" 
d="M229 151h336v-151h-505v680h169v-529zM320 -44c46 0 84 -36 84 -80c0 -32 -11 -40 -79 -141h-83l41 74c-31 13 -48 39 -48 67c0 44 38 80 85 80z" />
    <glyph glyph-name="Ldot" unicode="&#x13f;" horiz-adv-x="585" 
d="M229 151h336v-151h-505v680h169v-529zM412 272c-51 0 -92 38 -92 88s41 88 92 88c50 0 91 -38 91 -88s-41 -88 -91 -88z" />
    <glyph glyph-name="Lslash" unicode="&#x141;" horiz-adv-x="585" 
d="M229 151h336v-151h-505v235l-53 -19v133l53 19v312h169v-251l151 54v-133l-151 -54v-145z" />
    <glyph glyph-name="M" unicode="M" horiz-adv-x="854" 
d="M794 680v-680h-169v341l-151 -233v-1h-94v1l-152 235l1 -343h-169v680h126l241 -363l241 363h126z" />
    <glyph glyph-name="N" unicode="N" horiz-adv-x="745" 
d="M517 680h168v-680h-130l-326 373v-373h-169v680h129l328 -383v383z" />
    <glyph glyph-name="Nacute" unicode="&#x143;" horiz-adv-x="745" 
d="M550 910l-100 -160h-151l80 160h171zM517 680h168v-680h-130l-326 373v-373h-169v680h129l328 -383v383z" />
    <glyph glyph-name="Ncaron" unicode="&#x147;" horiz-adv-x="745" 
d="M450 740h-156l-116 160h142l53 -66l51 66h142zM517 680h168v-680h-130l-326 373v-373h-169v680h129l328 -383v383z" />
    <glyph glyph-name="Ncommaaccent" unicode="&#x145;" horiz-adv-x="745" 
d="M517 680h168v-680h-130l-326 373v-373h-169v680h129l328 -383v383zM373 -44c46 0 84 -36 84 -80c0 -32 -11 -40 -79 -141h-83l41 74c-31 13 -48 39 -48 67c0 44 38 80 85 80z" />
    <glyph glyph-name="Ntilde" unicode="&#xd1;" horiz-adv-x="745" 
d="M342 782c-30 18 -40 -2 -40 -24h-119c0 145 119 172 189 132l38 -22c30 -18 40 2 40 24h119c0 -145 -119 -173 -189 -132zM517 680h168v-680h-130l-326 373v-373h-169v680h129l328 -383v383z" />
    <glyph glyph-name="O" unicode="O" horiz-adv-x="808" 
d="M404 693c205 0 360 -155 360 -353s-155 -353 -360 -353s-360 155 -360 353s155 353 360 353zM404 145c110 0 189 88 189 195s-79 195 -189 195s-189 -88 -189 -195s79 -195 189 -195z" />
    <glyph glyph-name="Oacute" unicode="&#xd3;" horiz-adv-x="808" 
d="M410 910h171l-100 -160h-151zM404 693c205 0 360 -155 360 -353s-155 -353 -360 -353s-360 155 -360 353s155 353 360 353zM404 145c110 0 189 88 189 195s-79 195 -189 195s-189 -88 -189 -195s79 -195 189 -195z" />
    <glyph glyph-name="Ocircumflex" unicode="&#xd4;" horiz-adv-x="808" 
d="M455 750l-51 66l-53 -66h-141l117 164h153l116 -164h-141zM404 693c205 0 360 -155 360 -353s-155 -353 -360 -353s-360 155 -360 353s155 353 360 353zM404 145c110 0 189 88 189 195s-79 195 -189 195s-189 -88 -189 -195s79 -195 189 -195z" />
    <glyph glyph-name="Odieresis" unicode="&#xd6;" horiz-adv-x="808" 
d="M293 914c48 0 88 -37 88 -85s-40 -84 -88 -84c-49 0 -88 36 -88 84s39 85 88 85zM514 914c48 0 88 -37 88 -85s-40 -84 -88 -84c-49 0 -89 36 -89 84s40 85 89 85zM404 693c205 0 360 -155 360 -353s-155 -353 -360 -353s-360 155 -360 353s155 353 360 353zM404 145
c110 0 189 88 189 195s-79 195 -189 195s-189 -88 -189 -195s79 -195 189 -195z" />
    <glyph glyph-name="Ograve" unicode="&#xd2;" horiz-adv-x="808" 
d="M412 910l80 -160h-151l-100 160h171zM404 693c205 0 360 -155 360 -353s-155 -353 -360 -353s-360 155 -360 353s155 353 360 353zM404 145c110 0 189 88 189 195s-79 195 -189 195s-189 -88 -189 -195s79 -195 189 -195z" />
    <glyph glyph-name="Ohungarumlaut" unicode="&#x150;" horiz-adv-x="808" 
d="M311 911h144l-73 -160h-124zM475 911h144l-73 -160h-124zM404 693c205 0 360 -155 360 -353s-155 -353 -360 -353s-360 155 -360 353s155 353 360 353zM404 145c110 0 189 88 189 195s-79 195 -189 195s-189 -88 -189 -195s79 -195 189 -195z" />
    <glyph glyph-name="Omacron" unicode="&#x14c;" horiz-adv-x="808" 
d="M261 875h286v-124h-286v124zM404 693c205 0 360 -155 360 -353s-155 -353 -360 -353s-360 155 -360 353s155 353 360 353zM404 145c110 0 189 88 189 195s-79 195 -189 195s-189 -88 -189 -195s79 -195 189 -195z" />
    <glyph glyph-name="Oslash" unicode="&#xd8;" horiz-adv-x="808" 
d="M668 583c60 -63 96 -148 96 -243c0 -198 -155 -353 -360 -353c-72 0 -137 19 -192 52l-49 -58l-75 63l48 57c-58 62 -92 146 -92 239c0 198 155 353 360 353c70 0 133 -18 187 -49l44 52l75 -63zM215 340c0 -40 11 -77 31 -108l239 285c-24 12 -51 18 -81 18
c-110 0 -189 -88 -189 -195zM404 145c110 0 189 88 189 195c0 42 -12 81 -34 113l-241 -288c25 -13 54 -20 86 -20z" />
    <glyph glyph-name="Otilde" unicode="&#xd5;" horiz-adv-x="808" 
d="M600 892c0 -145 -119 -173 -189 -132l-38 22c-30 18 -40 -2 -40 -24h-119c0 145 119 172 189 132l38 -22c30 -18 40 2 40 24h119zM404 693c205 0 360 -155 360 -353s-155 -353 -360 -353s-360 155 -360 353s155 353 360 353zM404 145c110 0 189 88 189 195
s-79 195 -189 195s-189 -88 -189 -195s79 -195 189 -195z" />
    <glyph glyph-name="OE" unicode="&#x152;" horiz-adv-x="1006" 
d="M969 533h-345v-124h302v-144h-302v-118h345v-147h-552c-218 0 -373 142 -373 340s155 340 373 340h552v-147zM417 158h38v364h-38c-123 0 -202 -75 -202 -182s79 -182 202 -182z" />
    <glyph glyph-name="P" unicode="P" horiz-adv-x="641" 
d="M334 680c178 0 288 -96 288 -249c0 -159 -116 -258 -301 -258h-92v-173h-169v680h274zM331 321c74 0 123 43 123 110c0 61 -49 101 -123 101h-102v-211h102z" />
    <glyph glyph-name="Thorn" unicode="&#xde;" horiz-adv-x="641" 
d="M334 594c178 0 288 -96 288 -249c0 -159 -116 -258 -301 -258h-92v-87h-169v680h169v-86h105zM331 235c74 0 123 43 123 110c0 61 -49 101 -123 101h-102v-211h102z" />
    <glyph glyph-name="Q" unicode="Q" horiz-adv-x="808" 
d="M764 340c0 -105 -44 -198 -115 -262l107 -127l-119 -109l-134 158c-31 -9 -65 -13 -99 -13c-205 0 -360 155 -360 353s155 353 360 353s360 -155 360 -353zM215 340c0 -107 79 -195 189 -195s189 88 189 195s-79 195 -189 195s-189 -88 -189 -195z" />
    <glyph glyph-name="R" unicode="R" horiz-adv-x="701" 
d="M684 0h-197l-129 197h-1h-128v-197h-169v680h297c169 0 282 -92 282 -239c0 -89 -43 -161 -115 -203zM229 531v-182h125c65 0 116 36 116 92c0 55 -51 90 -116 90h-125z" />
    <glyph glyph-name="Racute" unicode="&#x154;" horiz-adv-x="701" 
d="M491 910l-100 -160h-151l80 160h171zM684 0h-197l-129 197h-1h-128v-197h-169v680h297c169 0 282 -92 282 -239c0 -89 -43 -161 -115 -203zM229 531v-182h125c65 0 116 36 116 92c0 55 -51 90 -116 90h-125z" />
    <glyph glyph-name="Rcaron" unicode="&#x158;" horiz-adv-x="701" 
d="M391 740h-156l-116 160h142l53 -66l51 66h142zM684 0h-197l-129 197h-1h-128v-197h-169v680h297c169 0 282 -92 282 -239c0 -89 -43 -161 -115 -203zM229 531v-182h125c65 0 116 36 116 92c0 55 -51 90 -116 90h-125z" />
    <glyph glyph-name="Rcommaaccent" unicode="&#x156;" horiz-adv-x="701" 
d="M524 238l160 -238h-197l-129 197h-1h-128v-197h-169v680h297c169 0 282 -92 282 -239c0 -89 -43 -161 -115 -203zM229 531v-182h125c65 0 116 36 116 92c0 55 -51 90 -116 90h-125zM346 -44c46 0 84 -36 84 -80c0 -32 -11 -40 -79 -141h-83l41 74c-31 13 -48 39 -48 67
c0 44 38 80 85 80z" />
    <glyph glyph-name="S" unicode="S" horiz-adv-x="676" 
d="M337 693c110 0 274 -41 291 -224h-170c-9 51 -40 86 -112 86c-60 0 -99 -23 -99 -67c0 -39 28 -56 82 -67l95 -20c125 -26 205 -77 205 -194c0 -136 -112 -220 -282 -220c-153 0 -291 73 -307 241h170c11 -60 62 -98 142 -98c60 0 96 23 96 61c0 24 -13 49 -72 60
l-112 24c-134 29 -197 90 -197 198c0 136 110 220 270 220z" />
    <glyph glyph-name="Sacute" unicode="&#x15a;" horiz-adv-x="676" 
d="M344 910h171l-100 -160h-151zM337 693c110 0 274 -41 291 -224h-170c-9 51 -40 86 -112 86c-60 0 -99 -23 -99 -67c0 -39 28 -56 82 -67l95 -20c125 -26 205 -77 205 -194c0 -136 -112 -220 -282 -220c-153 0 -291 73 -307 241h170c11 -60 62 -98 142 -98
c60 0 96 23 96 61c0 24 -13 49 -72 60l-112 24c-134 29 -197 90 -197 198c0 136 110 220 270 220z" />
    <glyph glyph-name="Scaron" unicode="&#x160;" horiz-adv-x="676" 
d="M389 900h142l-116 -160h-156l-116 160h142l53 -66zM337 693c110 0 274 -41 291 -224h-170c-9 51 -40 86 -112 86c-60 0 -99 -23 -99 -67c0 -39 28 -56 82 -67l95 -20c125 -26 205 -77 205 -194c0 -136 -112 -220 -282 -220c-153 0 -291 73 -307 241h170
c11 -60 62 -98 142 -98c60 0 96 23 96 61c0 24 -13 49 -72 60l-112 24c-134 29 -197 90 -197 198c0 136 110 220 270 220z" />
    <glyph glyph-name="Scedilla" unicode="&#x15e;" horiz-adv-x="676" 
d="M337 693c110 0 274 -41 291 -224h-170c-9 51 -40 86 -112 86c-60 0 -99 -23 -99 -67c0 -39 28 -56 82 -67l95 -20c125 -26 205 -77 205 -194c0 -136 -112 -220 -282 -220c-153 0 -291 73 -307 241h170c11 -60 62 -98 142 -98c60 0 96 23 96 61c0 24 -13 49 -72 60
l-112 24c-134 29 -197 90 -197 198c0 136 110 220 270 220zM428 -51l-71 -164h-135l54 164h152z" />
    <glyph glyph-name="Scommaaccent" unicode="&#x218;" horiz-adv-x="676" 
d="M337 693c110 0 274 -41 291 -224h-170c-9 51 -40 86 -112 86c-60 0 -99 -23 -99 -67c0 -39 28 -56 82 -67l95 -20c125 -26 205 -77 205 -194c0 -136 -112 -220 -282 -220c-153 0 -291 73 -307 241h170c11 -60 62 -98 142 -98c60 0 96 23 96 61c0 24 -13 49 -72 60
l-112 24c-134 29 -197 90 -197 198c0 136 110 220 270 220zM254 -265l41 74c-31 13 -48 39 -48 67c0 44 38 80 85 80c46 0 84 -36 84 -80c0 -32 -11 -40 -79 -141h-83z" />
    <glyph glyph-name="uni1E9E" unicode="&#x1e9e;" horiz-adv-x="753" 
d="M557 411c96 -22 167 -96 167 -200c0 -134 -112 -226 -273 -226c-39 0 -88 5 -130 15v142c46 -14 87 -20 113 -20c74 0 118 38 118 89c0 54 -51 87 -119 87h-71v70l117 164h-131c-69 0 -113 -42 -113 -108v-424h-168v425c0 153 108 255 281 255h345v-92z" />
    <glyph glyph-name="T" unicode="T" horiz-adv-x="648" 
d="M625 680v-151h-217v-529h-168v529h-217v151h602z" />
    <glyph glyph-name="Tcaron" unicode="&#x164;" horiz-adv-x="648" 
d="M401 740h-156l-116 160h142l53 -66l51 66h142zM625 680v-151h-217v-529h-168v529h-217v151h602z" />
    <glyph glyph-name="uni0162" unicode="&#x162;" horiz-adv-x="648" 
d="M625 680v-151h-217v-529h-168v529h-217v151h602zM196 -215l54 164h152l-71 -164h-135z" />
    <glyph glyph-name="uni021A" unicode="&#x21a;" horiz-adv-x="648" 
d="M625 680v-151h-217v-529h-168v529h-217v151h602zM306 -44c46 0 84 -36 84 -80c0 -32 -11 -40 -79 -141h-83l41 74c-31 13 -48 39 -48 67c0 44 38 80 85 80z" />
    <glyph glyph-name="U" unicode="U" horiz-adv-x="733" 
d="M683 680v-363c0 -211 -122 -330 -317 -330c-194 0 -316 119 -316 330v363h170v-366c0 -104 57 -169 146 -169s147 65 147 169v366h170z" />
    <glyph glyph-name="Uacute" unicode="&#xda;" horiz-adv-x="733" 
d="M373 910h171l-100 -160h-151zM683 680v-363c0 -211 -122 -330 -317 -330c-194 0 -316 119 -316 330v363h170v-366c0 -104 57 -169 146 -169s147 65 147 169v366h170z" />
    <glyph glyph-name="Ucircumflex" unicode="&#xdb;" horiz-adv-x="733" 
d="M418 750l-51 66l-53 -66h-141l117 164h153l116 -164h-141zM683 680v-363c0 -211 -122 -330 -317 -330c-194 0 -316 119 -316 330v363h170v-366c0 -104 57 -169 146 -169s147 65 147 169v366h170z" />
    <glyph glyph-name="Udieresis" unicode="&#xdc;" horiz-adv-x="733" 
d="M256 914c48 0 88 -37 88 -85s-40 -84 -88 -84c-49 0 -88 36 -88 84s39 85 88 85zM477 914c48 0 88 -37 88 -85s-40 -84 -88 -84c-49 0 -89 36 -89 84s40 85 89 85zM683 680v-363c0 -211 -122 -330 -317 -330c-194 0 -316 119 -316 330v363h170v-366
c0 -104 57 -169 146 -169s147 65 147 169v366h170z" />
    <glyph glyph-name="Ugrave" unicode="&#xd9;" horiz-adv-x="733" 
d="M375 910l80 -160h-151l-100 160h171zM683 680v-363c0 -211 -122 -330 -317 -330c-194 0 -316 119 -316 330v363h170v-366c0 -104 57 -169 146 -169s147 65 147 169v366h170z" />
    <glyph glyph-name="Uhungarumlaut" unicode="&#x170;" horiz-adv-x="733" 
d="M274 911h144l-73 -160h-124zM438 911h144l-73 -160h-124zM683 680v-363c0 -211 -122 -330 -317 -330c-194 0 -316 119 -316 330v363h170v-366c0 -104 57 -169 146 -169s147 65 147 169v366h170z" />
    <glyph glyph-name="Umacron" unicode="&#x16a;" horiz-adv-x="733" 
d="M224 875h286v-124h-286v124zM683 680v-363c0 -211 -122 -330 -317 -330c-194 0 -316 119 -316 330v363h170v-366c0 -104 57 -169 146 -169s147 65 147 169v366h170z" />
    <glyph glyph-name="Uogonek" unicode="&#x172;" horiz-adv-x="733" 
d="M513 680h170v-363c0 -145 -57 -246 -156 -295c-61 -42 -72 -70 -72 -90c0 -17 13 -33 47 -33c16 0 28 2 47 7l15 -128c-14 -6 -48 -13 -81 -13c-93 0 -155 47 -155 120c0 30 14 66 49 102h-11c-194 0 -316 119 -316 330v363h170v-366c0 -104 57 -169 146 -169
s147 65 147 169v366z" />
    <glyph glyph-name="Uring" unicode="&#x16e;" horiz-adv-x="733" 
d="M367 979c73 0 124 -46 124 -115s-51 -116 -124 -116s-124 47 -124 116s51 115 124 115zM367 820c27 0 44 18 44 44c0 25 -17 42 -44 42s-44 -17 -44 -42c0 -26 17 -44 44 -44zM683 680v-363c0 -211 -122 -330 -317 -330c-194 0 -316 119 -316 330v363h170v-366
c0 -104 57 -169 146 -169s147 65 147 169v366h170z" />
    <glyph glyph-name="V" unicode="V" horiz-adv-x="780" 
d="M584 680h186l-294 -684h-171l-295 684h186l194 -461z" />
    <glyph glyph-name="W" unicode="W" horiz-adv-x="1060" 
d="M871 680h179l-223 -684h-160l-137 417l-137 -417h-160l-223 684h179l127 -422l144 422h140l144 -422z" />
    <glyph glyph-name="Wacute" unicode="&#x1e82;" horiz-adv-x="1060" 
d="M708 910l-100 -160h-151l80 160h171zM871 680h179l-223 -684h-160l-137 417l-137 -417h-160l-223 684h179l127 -422l144 422h140l144 -422z" />
    <glyph glyph-name="Wcircumflex" unicode="&#x174;" horiz-adv-x="1060" 
d="M531 816l-53 -66h-141l117 164h153l116 -164h-141zM871 680h179l-223 -684h-160l-137 417l-137 -417h-160l-223 684h179l127 -422l144 422h140l144 -422z" />
    <glyph glyph-name="Wdieresis" unicode="&#x1e84;" horiz-adv-x="1060" 
d="M420 745c-49 0 -88 36 -88 84s39 85 88 85c48 0 88 -37 88 -85s-40 -84 -88 -84zM641 745c-49 0 -89 36 -89 84s40 85 89 85c48 0 88 -37 88 -85s-40 -84 -88 -84zM871 680h179l-223 -684h-160l-137 417l-137 -417h-160l-223 684h179l127 -422l144 422h140l144 -422z" />
    <glyph glyph-name="Wgrave" unicode="&#x1e80;" horiz-adv-x="1060" 
d="M619 750h-151l-100 160h171zM871 680h179l-223 -684h-160l-137 417l-137 -417h-160l-223 684h179l127 -422l144 422h140l144 -422z" />
    <glyph glyph-name="X" unicode="X" horiz-adv-x="696" 
d="M688 0h-193l-146 209l-147 -209h-194l227 335l-224 345h203l134 -210l134 210h203l-224 -345z" />
    <glyph glyph-name="Y" unicode="Y" horiz-adv-x="719" 
d="M526 680h187l-268 -475v-205h-170v205l-269 475h187l166 -296z" />
    <glyph glyph-name="Yacute" unicode="&#xdd;" horiz-adv-x="719" 
d="M537 910l-100 -160h-151l80 160h171zM526 680h187l-268 -475v-205h-170v205l-269 475h187l166 -296z" />
    <glyph glyph-name="Ycircumflex" unicode="&#x176;" horiz-adv-x="719" 
d="M360 816l-53 -66h-141l117 164h153l116 -164h-141zM526 680h187l-268 -475v-205h-170v205l-269 475h187l166 -296z" />
    <glyph glyph-name="Ydieresis" unicode="&#x178;" horiz-adv-x="719" 
d="M249 745c-49 0 -88 36 -88 84s39 85 88 85c48 0 88 -37 88 -85s-40 -84 -88 -84zM470 745c-49 0 -89 36 -89 84s40 85 89 85c48 0 88 -37 88 -85s-40 -84 -88 -84zM526 680h187l-268 -475v-205h-170v205l-269 475h187l166 -296z" />
    <glyph glyph-name="Ygrave" unicode="&#x1ef2;" horiz-adv-x="719" 
d="M448 750h-151l-100 160h171zM526 680h187l-268 -475v-205h-170v205l-269 475h187l166 -296z" />
    <glyph glyph-name="Z" unicode="Z" horiz-adv-x="658" 
d="M294 149h329v-149h-589v80l337 451h-320v149h566v-80z" />
    <glyph glyph-name="Zacute" unicode="&#x179;" horiz-adv-x="658" 
d="M507 910l-100 -160h-151l80 160h171zM294 149h329v-149h-589v80l337 451h-320v149h566v-80z" />
    <glyph glyph-name="Zcaron" unicode="&#x17d;" horiz-adv-x="658" 
d="M407 740h-156l-116 160h142l53 -66l51 66h142zM294 149h329v-149h-589v80l337 451h-320v149h566v-80z" />
    <glyph glyph-name="Zdotaccent" unicode="&#x17b;" horiz-adv-x="658" 
d="M330 743c-51 0 -92 38 -92 88s41 88 92 88c50 0 91 -38 91 -88s-41 -88 -91 -88zM294 149h329v-149h-589v80l337 451h-320v149h566v-80z" />
    <glyph glyph-name="R.ss02" horiz-adv-x="701" 
d="M464 0l-209 197h-26v-197h-169v680h294c175 0 285 -92 285 -239c0 -112 -67 -198 -179 -230l224 -211h-220zM351 531h-122v-182h122c71 0 119 36 119 92c0 55 -48 90 -119 90z" />
    <glyph glyph-name="Racute.ss02" horiz-adv-x="701" 
d="M505 910l-100 -160h-151l80 160h171zM464 0l-209 197h-26v-197h-169v680h294c175 0 285 -92 285 -239c0 -112 -67 -198 -179 -230l224 -211h-220zM351 531h-122v-182h122c71 0 119 36 119 92c0 55 -48 90 -119 90z" />
    <glyph glyph-name="Rcaron.ss02" horiz-adv-x="701" 
d="M405 740h-156l-116 160h142l53 -66l51 66h142zM464 0l-209 197h-26v-197h-169v680h294c175 0 285 -92 285 -239c0 -112 -67 -198 -179 -230l224 -211h-220zM351 531h-122v-182h122c71 0 119 36 119 92c0 55 -48 90 -119 90z" />
    <glyph glyph-name="Rcommaaccent.ss02" horiz-adv-x="701" 
d="M460 211l224 -211h-220l-209 197h-26v-197h-169v680h294c175 0 285 -92 285 -239c0 -112 -67 -198 -179 -230zM351 531h-122v-182h122c71 0 119 36 119 92c0 55 -48 90 -119 90zM344 -44c46 0 84 -36 84 -80c0 -32 -11 -40 -79 -141h-83l41 74c-31 13 -48 39 -48 67
c0 44 38 80 85 80z" />
    <glyph glyph-name="Q.ss03" horiz-adv-x="808" 
d="M404 693c205 0 360 -155 360 -353s-155 -353 -360 -353s-360 155 -360 353s155 353 360 353zM404 145c110 0 189 88 189 195s-79 195 -189 195s-189 -88 -189 -195s79 -195 189 -195zM389 -54l336 -39l-27 -140c-111 21 -224 43 -333 67z" />
    <glyph glyph-name="a" unicode="a" horiz-adv-x="624" 
d="M407 485h162v-485h-162v26c-36 -24 -79 -39 -133 -39c-131 0 -241 112 -241 256c0 145 110 255 241 255c54 0 97 -14 133 -38v25zM307 125c35 0 69 9 100 43v150c-31 34 -65 43 -100 43c-66 0 -115 -51 -115 -118s49 -118 115 -118z" />
    <glyph glyph-name="aacute" unicode="&#xe1;" horiz-adv-x="624" 
d="M501 717l-100 -160h-151l80 160h171zM407 485h162v-485h-162v26c-36 -24 -79 -39 -133 -39c-131 0 -241 112 -241 256c0 145 110 255 241 255c54 0 97 -14 133 -38v25zM307 125c35 0 69 9 100 43v150c-31 34 -65 43 -100 43c-66 0 -115 -51 -115 -118s49 -118 115 -118z
" />
    <glyph glyph-name="abreve" unicode="&#x103;" horiz-adv-x="624" 
d="M324 544c-102 0 -175 59 -175 169h115c0 -45 26 -65 60 -65c33 0 60 20 60 65h115c0 -110 -73 -169 -175 -169zM407 485h162v-485h-162v26c-36 -24 -79 -39 -133 -39c-131 0 -241 112 -241 256c0 145 110 255 241 255c54 0 97 -14 133 -38v25zM307 125c35 0 69 9 100 43
v150c-31 34 -65 43 -100 43c-66 0 -115 -51 -115 -118s49 -118 115 -118z" />
    <glyph glyph-name="uni01CE" unicode="&#x1ce;" horiz-adv-x="624" 
d="M401 552h-156l-116 160h142l53 -66l51 66h142zM407 485h162v-485h-162v26c-36 -24 -79 -39 -133 -39c-131 0 -241 112 -241 256c0 145 110 255 241 255c54 0 97 -14 133 -38v25zM307 125c35 0 69 9 100 43v150c-31 34 -65 43 -100 43c-66 0 -115 -51 -115 -118
s49 -118 115 -118z" />
    <glyph glyph-name="acircumflex" unicode="&#xe2;" horiz-adv-x="624" 
d="M324 616l-53 -66h-141l117 164h153l116 -164h-141zM407 485h162v-485h-162v26c-36 -24 -79 -39 -133 -39c-131 0 -241 112 -241 256c0 145 110 255 241 255c54 0 97 -14 133 -38v25zM307 125c35 0 69 9 100 43v150c-31 34 -65 43 -100 43c-66 0 -115 -51 -115 -118
s49 -118 115 -118z" />
    <glyph glyph-name="adieresis" unicode="&#xe4;" horiz-adv-x="624" 
d="M214 552c-49 0 -88 36 -88 84s39 85 88 85c48 0 88 -37 88 -85s-40 -84 -88 -84zM435 552c-49 0 -89 36 -89 84s40 85 89 85c48 0 88 -37 88 -85s-40 -84 -88 -84zM407 485h162v-485h-162v26c-36 -24 -79 -39 -133 -39c-131 0 -241 112 -241 256c0 145 110 255 241 255
c54 0 97 -14 133 -38v25zM307 125c35 0 69 9 100 43v150c-31 34 -65 43 -100 43c-66 0 -115 -51 -115 -118s49 -118 115 -118z" />
    <glyph glyph-name="agrave" unicode="&#xe0;" horiz-adv-x="624" 
d="M405 557h-151l-100 160h171zM407 485h162v-485h-162v26c-36 -24 -79 -39 -133 -39c-131 0 -241 112 -241 256c0 145 110 255 241 255c54 0 97 -14 133 -38v25zM307 125c35 0 69 9 100 43v150c-31 34 -65 43 -100 43c-66 0 -115 -51 -115 -118s49 -118 115 -118z" />
    <glyph glyph-name="amacron" unicode="&#x101;" horiz-adv-x="624" 
d="M467 694v-124h-286v124h286zM407 485h162v-485h-162v26c-36 -24 -79 -39 -133 -39c-131 0 -241 112 -241 256c0 145 110 255 241 255c54 0 97 -14 133 -38v25zM307 125c35 0 69 9 100 43v150c-31 34 -65 43 -100 43c-66 0 -115 -51 -115 -118s49 -118 115 -118z" />
    <glyph glyph-name="aogonek" unicode="&#x105;" horiz-adv-x="624" 
d="M591 -56l15 -120c-14 -7 -48 -14 -81 -14c-93 0 -164 46 -164 127c0 29 15 60 46 84v5c-36 -24 -79 -39 -133 -39c-131 0 -241 112 -241 256c0 145 110 255 241 255c54 0 97 -14 133 -38v25h162v-485h-36c-29 -8 -39 -19 -39 -35c0 -17 16 -28 50 -28c16 0 28 2 47 7z
M307 125c35 0 69 9 100 43v150c-31 34 -65 43 -100 43c-66 0 -115 -51 -115 -118s49 -118 115 -118z" />
    <glyph glyph-name="aring" unicode="&#xe5;" horiz-adv-x="624" 
d="M324 548c-73 0 -124 47 -124 116s51 115 124 115s124 -46 124 -115s-51 -116 -124 -116zM324 706c-27 0 -44 -17 -44 -42c0 -26 17 -44 44 -44s44 18 44 44c0 25 -17 42 -44 42zM407 485h162v-485h-162v26c-36 -24 -79 -39 -133 -39c-131 0 -241 112 -241 256
c0 145 110 255 241 255c54 0 97 -14 133 -38v25zM307 125c35 0 69 9 100 43v150c-31 34 -65 43 -100 43c-66 0 -115 -51 -115 -118s49 -118 115 -118z" />
    <glyph glyph-name="atilde" unicode="&#xe3;" horiz-adv-x="624" 
d="M293 595c-30 18 -40 -2 -40 -24h-119c0 145 119 172 189 132l38 -22c30 -18 40 2 40 24h119c0 -145 -119 -173 -189 -132zM407 485h162v-485h-162v26c-36 -24 -79 -39 -133 -39c-131 0 -241 112 -241 256c0 145 110 255 241 255c54 0 97 -14 133 -38v25zM307 125
c35 0 69 9 100 43v150c-31 34 -65 43 -100 43c-66 0 -115 -51 -115 -118s49 -118 115 -118z" />
    <glyph glyph-name="ae" unicode="&#xe6;" horiz-adv-x="893" 
d="M606 498c171 0 274 -122 250 -294h-351c11 -50 44 -89 110 -89c36 0 57 8 72 26h164c-29 -95 -119 -154 -233 -154c-79 0 -145 27 -191 71c-46 -37 -105 -67 -192 -67c-124 0 -207 58 -207 156c0 92 74 147 201 147h127c0 45 -15 82 -75 82c-38 0 -68 -18 -73 -51h-156
c8 119 108 173 225 173c68 0 125 -20 163 -57c43 36 100 57 166 57zM610 378c-57 0 -90 -32 -103 -81h202c-9 56 -44 81 -99 81zM177 156c0 -23 21 -46 73 -46c40 0 75 11 119 40c-5 13 -9 27 -11 41h-127c-35 0 -54 -15 -54 -35z" />
    <glyph glyph-name="b" unicode="b" horiz-adv-x="624" 
d="M350 496c131 0 241 -110 241 -254c0 -145 -110 -255 -241 -255c-53 0 -96 14 -132 37v-24h-163v710h163v-251c36 23 79 37 132 37zM318 123c66 0 114 51 114 119c0 66 -48 117 -114 117c-35 0 -70 -9 -100 -42v-152c30 -33 65 -42 100 -42z" />
    <glyph glyph-name="c" unicode="c" horiz-adv-x="580" 
d="M299 124c49 0 87 31 95 75h153c-12 -125 -115 -212 -249 -212c-152 0 -265 108 -265 256c0 147 113 255 265 255c134 0 237 -87 249 -212h-153c-8 44 -46 75 -95 75c-70 0 -111 -52 -111 -118s41 -119 111 -119z" />
    <glyph glyph-name="cacute" unicode="&#x107;" horiz-adv-x="580" 
d="M470 717l-100 -160h-151l80 160h171zM299 124c49 0 87 31 95 75h153c-12 -125 -115 -212 -249 -212c-152 0 -265 108 -265 256c0 147 113 255 265 255c134 0 237 -87 249 -212h-153c-8 44 -46 75 -95 75c-70 0 -111 -52 -111 -118s41 -119 111 -119z" />
    <glyph glyph-name="ccaron" unicode="&#x10d;" horiz-adv-x="580" 
d="M370 552h-156l-116 160h142l53 -66l51 66h142zM299 124c49 0 87 31 95 75h153c-12 -125 -115 -212 -249 -212c-152 0 -265 108 -265 256c0 147 113 255 265 255c134 0 237 -87 249 -212h-153c-8 44 -46 75 -95 75c-70 0 -111 -52 -111 -118s41 -119 111 -119z" />
    <glyph glyph-name="ccedilla" unicode="&#xe7;" horiz-adv-x="580" 
d="M299 124c49 0 87 31 95 75h153c-12 -125 -115 -212 -249 -212c-152 0 -265 108 -265 256c0 147 113 255 265 255c134 0 237 -87 249 -212h-153c-8 44 -46 75 -95 75c-70 0 -111 -52 -111 -118s41 -119 111 -119zM167 -215l54 164h152l-71 -164h-135z" />
    <glyph glyph-name="cdotaccent" unicode="&#x10b;" horiz-adv-x="580" 
d="M293 550c-51 0 -92 38 -92 88s41 88 92 88c50 0 91 -38 91 -88s-41 -88 -91 -88zM299 124c49 0 87 31 95 75h153c-12 -125 -115 -212 -249 -212c-152 0 -265 108 -265 256c0 147 113 255 265 255c134 0 237 -87 249 -212h-153c-8 44 -46 75 -95 75
c-70 0 -111 -52 -111 -118s41 -119 111 -119z" />
    <glyph glyph-name="d" unicode="d" horiz-adv-x="624" 
d="M407 710h162v-710h-162v24c-36 -23 -79 -37 -133 -37c-131 0 -241 110 -241 255c0 144 110 254 241 254c54 0 97 -14 133 -38v252zM307 123c35 0 69 9 100 43v150c-31 34 -65 43 -100 43c-66 0 -115 -51 -115 -117c0 -68 49 -119 115 -119z" />
    <glyph glyph-name="eth" unicode="&#xf0;" horiz-adv-x="593" 
d="M414 601c88 -92 145 -216 145 -358c0 -148 -109 -258 -262 -258c-154 0 -264 110 -264 258c0 146 110 253 264 253c14 0 27 -1 40 -3c-17 22 -36 42 -57 60l-148 -53l-34 88l86 31c-26 16 -55 31 -86 46l140 61c33 -15 64 -33 93 -53l103 37l34 -89zM297 125
c65 0 109 52 109 117c0 63 -44 114 -109 114c-67 0 -110 -51 -110 -114c0 -65 43 -117 110 -117z" />
    <glyph glyph-name="dcaron" unicode="&#x10f;" horiz-adv-x="637" 
d="M407 458v252h162v-710h-162v24c-36 -23 -79 -37 -133 -37c-131 0 -241 110 -241 255c0 144 110 254 241 254c54 0 97 -14 133 -38zM622 710h148l-39 -204h-115zM307 123c35 0 69 9 100 43v150c-31 34 -65 43 -100 43c-66 0 -115 -51 -115 -117c0 -68 49 -119 115 -119z
" />
    <glyph glyph-name="dcroat" unicode="&#x111;" horiz-adv-x="624" 
d="M606 659v-114h-37v-545h-162v24c-36 -23 -79 -37 -133 -37c-131 0 -241 110 -241 255c0 144 110 254 241 254c54 0 97 -14 133 -38v87h-148v114h148v51h162v-51h37zM307 123c35 0 69 9 100 43v150c-31 34 -65 43 -100 43c-66 0 -115 -51 -115 -117
c0 -68 49 -119 115 -119z" />
    <glyph glyph-name="e" unicode="e" horiz-adv-x="573" 
d="M286 498c171 0 274 -122 250 -294h-351c11 -50 44 -89 110 -89c36 0 57 8 72 26h164c-29 -95 -119 -154 -233 -154c-159 0 -265 108 -265 256c0 147 103 255 253 255zM290 378c-57 0 -90 -32 -103 -81h202c-9 56 -44 81 -99 81z" />
    <glyph glyph-name="eacute" unicode="&#xe9;" horiz-adv-x="573" 
d="M469 717l-100 -160h-151l80 160h171zM286 498c171 0 274 -122 250 -294h-351c11 -50 44 -89 110 -89c36 0 57 8 72 26h164c-29 -95 -119 -154 -233 -154c-159 0 -265 108 -265 256c0 147 103 255 253 255zM290 378c-57 0 -90 -32 -103 -81h202c-9 56 -44 81 -99 81z" />
    <glyph glyph-name="ecaron" unicode="&#x11b;" horiz-adv-x="573" 
d="M369 552h-156l-116 160h142l53 -66l51 66h142zM286 498c171 0 274 -122 250 -294h-351c11 -50 44 -89 110 -89c36 0 57 8 72 26h164c-29 -95 -119 -154 -233 -154c-159 0 -265 108 -265 256c0 147 103 255 253 255zM290 378c-57 0 -90 -32 -103 -81h202
c-9 56 -44 81 -99 81z" />
    <glyph glyph-name="ecircumflex" unicode="&#xea;" horiz-adv-x="573" 
d="M292 616l-53 -66h-141l117 164h153l116 -164h-141zM286 498c171 0 274 -122 250 -294h-351c11 -50 44 -89 110 -89c36 0 57 8 72 26h164c-29 -95 -119 -154 -233 -154c-159 0 -265 108 -265 256c0 147 103 255 253 255zM290 378c-57 0 -90 -32 -103 -81h202
c-9 56 -44 81 -99 81z" />
    <glyph glyph-name="edieresis" unicode="&#xeb;" horiz-adv-x="573" 
d="M182 552c-49 0 -88 36 -88 84s39 85 88 85c48 0 88 -37 88 -85s-40 -84 -88 -84zM403 552c-49 0 -89 36 -89 84s40 85 89 85c48 0 88 -37 88 -85s-40 -84 -88 -84zM286 498c171 0 274 -122 250 -294h-351c11 -50 44 -89 110 -89c36 0 57 8 72 26h164
c-29 -95 -119 -154 -233 -154c-159 0 -265 108 -265 256c0 147 103 255 253 255zM290 378c-57 0 -90 -32 -103 -81h202c-9 56 -44 81 -99 81z" />
    <glyph glyph-name="edotaccent" unicode="&#x117;" horiz-adv-x="573" 
d="M292 550c-51 0 -92 38 -92 88s41 88 92 88c50 0 91 -38 91 -88s-41 -88 -91 -88zM286 498c171 0 274 -122 250 -294h-351c11 -50 44 -89 110 -89c36 0 57 8 72 26h164c-29 -95 -119 -154 -233 -154c-159 0 -265 108 -265 256c0 147 103 255 253 255zM290 378
c-57 0 -90 -32 -103 -81h202c-9 56 -44 81 -99 81z" />
    <glyph glyph-name="egrave" unicode="&#xe8;" horiz-adv-x="573" 
d="M373 557h-151l-100 160h171zM286 498c171 0 274 -122 250 -294h-351c11 -50 44 -89 110 -89c36 0 57 8 72 26h164c-29 -95 -119 -154 -233 -154c-159 0 -265 108 -265 256c0 147 103 255 253 255zM290 378c-57 0 -90 -32 -103 -81h202c-9 56 -44 81 -99 81z" />
    <glyph glyph-name="emacron" unicode="&#x113;" horiz-adv-x="573" 
d="M435 694v-124h-286v124h286zM286 498c171 0 274 -122 250 -294h-351c11 -50 44 -89 110 -89c36 0 57 8 72 26h164c-29 -95 -119 -154 -233 -154c-159 0 -265 108 -265 256c0 147 103 255 253 255zM290 378c-57 0 -90 -32 -103 -81h202c-9 56 -44 81 -99 81z" />
    <glyph glyph-name="eogonek" unicode="&#x119;" horiz-adv-x="573" 
d="M286 498c171 0 274 -122 250 -294h-351c11 -50 44 -89 110 -89c36 0 57 8 72 26h164c-15 -49 -46 -89 -89 -115c-27 -24 -33 -40 -33 -57c0 -21 16 -34 49 -34c16 0 29 2 48 7l15 -120c-14 -7 -49 -14 -82 -14c-92 0 -157 50 -157 123c0 18 5 37 15 56
c-158 0 -264 108 -264 256c0 147 103 255 253 255zM290 378c-57 0 -90 -32 -103 -81h202c-9 56 -44 81 -99 81z" />
    <glyph glyph-name="f" unicode="f" horiz-adv-x="455" 
d="M284 513v-28h171v-139h-171v-346h-162v346h-119v139h119v28c0 141 95 219 219 219c39 0 73 -6 123 -19l-22 -135c-24 8 -53 15 -74 15c-52 0 -84 -31 -84 -80z" />
    <glyph glyph-name="g" unicode="g" horiz-adv-x="624" 
d="M407 485h162v-488c0 -152 -108 -240 -260 -240c-147 0 -254 84 -262 210h160c8 -45 42 -73 102 -73c55 0 98 34 98 100v58c-36 -22 -79 -35 -133 -35c-131 0 -241 103 -241 234c0 148 110 247 241 247c54 0 97 -14 133 -37v24zM307 146c35 0 69 11 100 46v128
c-31 35 -65 45 -100 45c-66 0 -115 -44 -115 -114c0 -53 49 -105 115 -105z" />
    <glyph glyph-name="gbreve" unicode="&#x11f;" horiz-adv-x="624" 
d="M324 544c-102 0 -175 59 -175 169h115c0 -45 26 -65 60 -65c33 0 60 20 60 65h115c0 -110 -73 -169 -175 -169zM407 485h162v-488c0 -152 -108 -240 -260 -240c-147 0 -254 84 -262 210h160c8 -45 42 -73 102 -73c55 0 98 34 98 100v58c-36 -22 -79 -35 -133 -35
c-131 0 -241 103 -241 234c0 148 110 247 241 247c54 0 97 -14 133 -37v24zM307 146c35 0 69 11 100 46v128c-31 35 -65 45 -100 45c-66 0 -115 -44 -115 -114c0 -53 49 -105 115 -105z" />
    <glyph glyph-name="gcommaaccent" unicode="&#x123;" horiz-adv-x="624" 
d="M324 529c-46 0 -84 36 -84 80c0 32 11 40 79 141h83l-41 -74c31 -13 48 -39 48 -67c0 -44 -38 -80 -85 -80zM407 485h162v-488c0 -152 -108 -240 -260 -240c-147 0 -254 84 -262 210h160c8 -45 42 -73 102 -73c55 0 98 34 98 100v58c-36 -22 -79 -35 -133 -35
c-131 0 -241 103 -241 234c0 148 110 247 241 247c54 0 97 -14 133 -37v24zM307 146c35 0 69 11 100 46v128c-31 35 -65 45 -100 45c-66 0 -115 -44 -115 -114c0 -53 49 -105 115 -105z" />
    <glyph glyph-name="gdotaccent" unicode="&#x121;" horiz-adv-x="624" 
d="M324 550c-51 0 -92 38 -92 88s41 88 92 88c50 0 91 -38 91 -88s-41 -88 -91 -88zM407 485h162v-488c0 -152 -108 -240 -260 -240c-147 0 -254 84 -262 210h160c8 -45 42 -73 102 -73c55 0 98 34 98 100v58c-36 -22 -79 -35 -133 -35c-131 0 -241 103 -241 234
c0 148 110 247 241 247c54 0 97 -14 133 -37v24zM307 146c35 0 69 11 100 46v128c-31 35 -65 45 -100 45c-66 0 -115 -44 -115 -114c0 -53 49 -105 115 -105z" />
    <glyph glyph-name="h" unicode="h" horiz-adv-x="606" 
d="M351 498c122 0 206 -83 206 -221v-277h-162v251c0 69 -35 100 -89 100c-29 0 -60 -15 -88 -46v-305h-163v710h163v-257c39 29 81 45 133 45z" />
    <glyph glyph-name="hbar" unicode="&#x127;" horiz-adv-x="606" 
d="M351 498c122 0 206 -83 206 -221v-277h-162v251c0 69 -35 100 -89 100c-29 0 -60 -15 -88 -46v-305h-163v575h-33v95h33v40h163v-40h109v-95h-109v-122c39 29 81 45 133 45z" />
    <glyph glyph-name="i" unicode="i" horiz-adv-x="301" 
d="M150 561c-53 0 -95 39 -95 91c0 53 42 92 95 92c52 0 95 -39 95 -92c0 -52 -43 -91 -95 -91zM70 485h162v-485h-162v485z" />
    <glyph glyph-name="dotlessi" unicode="&#x131;" horiz-adv-x="279" 
d="M59 485h162v-485h-162v485z" />
    <glyph glyph-name="iacute" unicode="&#xed;" horiz-adv-x="279" 
d="M146 717h171l-100 -160h-151zM59 485h162v-485h-162v485z" />
    <glyph glyph-name="icircumflex" unicode="&#xee;" horiz-adv-x="279" 
d="M191 550l-51 66l-53 -66h-141l117 164h153l116 -164h-141zM59 485h162v-485h-162v485z" />
    <glyph glyph-name="idieresis" unicode="&#xef;" horiz-adv-x="279" 
d="M30 721c48 0 88 -37 88 -85s-40 -84 -88 -84c-49 0 -88 36 -88 84s39 85 88 85zM251 721c48 0 88 -37 88 -85s-40 -84 -88 -84c-49 0 -89 36 -89 84s40 85 89 85zM59 485h162v-485h-162v485z" />
    <glyph glyph-name="i.loclTRK" horiz-adv-x="301" 
d="M150 561c-53 0 -95 39 -95 91c0 53 42 92 95 92c52 0 95 -39 95 -92c0 -52 -43 -91 -95 -91zM70 485h162v-485h-162v485z" />
    <glyph glyph-name="igrave" unicode="&#xec;" horiz-adv-x="279" 
d="M141 717l80 -160h-151l-100 160h171zM59 485h162v-485h-162v485z" />
    <glyph glyph-name="ij" unicode="&#x133;" horiz-adv-x="587" 
d="M150 561c-53 0 -95 39 -95 91c0 53 42 92 95 92c52 0 95 -39 95 -92c0 -52 -43 -91 -95 -91zM437 561c-52 0 -95 39 -95 91c0 53 43 92 95 92c53 0 95 -39 95 -92c0 -52 -42 -91 -95 -91zM70 485h162v-485h-162v485zM519 485v-487c0 -150 -47 -237 -239 -241l-14 135
c71 7 90 28 90 84v509h163z" />
    <glyph glyph-name="imacron" unicode="&#x12b;" horiz-adv-x="279" 
d="M-3 694h286v-124h-286v124zM59 485h162v-485h-162v485z" />
    <glyph glyph-name="iogonek" unicode="&#x12f;" horiz-adv-x="279" 
d="M150 561c-53 0 -95 39 -95 91c0 53 42 92 95 92c52 0 95 -39 95 -92c0 -52 -43 -91 -95 -91zM242 -56l15 -120c-14 -7 -48 -14 -81 -14c-93 0 -164 46 -164 127c0 33 19 67 58 93v455h162v-485h-48c-29 -8 -39 -19 -39 -35c0 -17 16 -28 50 -28c16 0 28 2 47 7z" />
    <glyph glyph-name="j" unicode="j" horiz-adv-x="286" 
d="M136 561c-52 0 -95 39 -95 91c0 53 43 92 95 92c53 0 95 -39 95 -92c0 -52 -42 -91 -95 -91zM218 485v-487c0 -150 -47 -237 -239 -241l-14 135c71 7 90 28 90 84v509h163z" />
    <glyph glyph-name="k" unicode="k" horiz-adv-x="598" 
d="M401 0l-116 168l-67 -72v-96h-163v710h163v-406l168 181h193l-184 -198l200 -287h-194z" />
    <glyph glyph-name="kcommaaccent" unicode="&#x137;" horiz-adv-x="598" 
d="M395 287l200 -287h-194l-116 168l-67 -72v-96h-163v710h163v-406l168 181h193zM299 -44c46 0 84 -36 84 -80c0 -32 -11 -40 -79 -141h-83l41 74c-31 13 -48 39 -48 67c0 44 38 80 85 80z" />
    <glyph glyph-name="l" unicode="l" horiz-adv-x="273" 
d="M55 710h163v-710h-163v710z" />
    <glyph glyph-name="lacute" unicode="&#x13a;" horiz-adv-x="273" 
d="M143 942h171l-100 -160h-151zM55 710h163v-710h-163v710z" />
    <glyph glyph-name="lcaron" unicode="&#x13e;" horiz-adv-x="273" 
d="M55 710h163v-710h-163v710zM255 710h148l-39 -204h-115z" />
    <glyph glyph-name="lcommaaccent" unicode="&#x13c;" horiz-adv-x="273" 
d="M55 710h163v-710h-163v710zM56 -265l41 74c-31 13 -48 39 -48 67c0 44 38 80 85 80c46 0 84 -36 84 -80c0 -32 -11 -40 -79 -141h-83z" />
    <glyph glyph-name="ldot" unicode="&#x140;" horiz-adv-x="464" 
d="M55 710h163v-710h-163v710zM333 256c-51 0 -92 38 -92 88s41 88 92 88c50 0 91 -38 91 -88s-41 -88 -91 -88z" />
    <glyph glyph-name="lslash" unicode="&#x142;" horiz-adv-x="273" 
d="M271 484v-146l-53 -20v-318h-163v258l-53 -20v147l53 20v305h163v-246z" />
    <glyph glyph-name="m" unicode="m" horiz-adv-x="909" 
d="M652 498c126 0 208 -77 208 -217v-281h-162v261c0 66 -34 90 -80 90c-29 0 -55 -9 -80 -37c1 -9 1 -18 1 -28v-286h-162v266c0 66 -34 85 -75 85c-32 0 -60 -12 -84 -41v-310h-163v485h163v-30c34 27 71 43 125 43c62 0 113 -20 148 -60c48 41 98 60 161 60z" />
    <glyph glyph-name="n" unicode="n" horiz-adv-x="606" 
d="M351 498c122 0 206 -83 206 -221v-277h-162v251c0 69 -35 100 -89 100c-29 0 -60 -15 -88 -46v-305h-163v485h163v-32c39 29 81 45 133 45z" />
    <glyph glyph-name="nacute" unicode="&#x144;" horiz-adv-x="606" 
d="M481 717l-100 -160h-151l80 160h171zM351 498c122 0 206 -83 206 -221v-277h-162v251c0 69 -35 100 -89 100c-29 0 -60 -15 -88 -46v-305h-163v485h163v-32c39 29 81 45 133 45z" />
    <glyph glyph-name="ncaron" unicode="&#x148;" horiz-adv-x="606" 
d="M381 552h-156l-116 160h142l53 -66l51 66h142zM351 498c122 0 206 -83 206 -221v-277h-162v251c0 69 -35 100 -89 100c-29 0 -60 -15 -88 -46v-305h-163v485h163v-32c39 29 81 45 133 45z" />
    <glyph glyph-name="ncommaaccent" unicode="&#x146;" horiz-adv-x="606" 
d="M351 498c122 0 206 -83 206 -221v-277h-162v251c0 69 -35 100 -89 100c-29 0 -60 -15 -88 -46v-305h-163v485h163v-32c39 29 81 45 133 45zM304 -44c46 0 84 -36 84 -80c0 -32 -11 -40 -79 -141h-83l41 74c-31 13 -48 39 -48 67c0 44 38 80 85 80z" />
    <glyph glyph-name="ntilde" unicode="&#xf1;" horiz-adv-x="606" 
d="M273 595c-30 18 -40 -2 -40 -24h-119c0 145 119 172 189 132l38 -22c30 -18 40 2 40 24h119c0 -145 -119 -173 -189 -132zM351 498c122 0 206 -83 206 -221v-277h-162v251c0 69 -35 100 -89 100c-29 0 -60 -15 -88 -46v-305h-163v485h163v-32c39 29 81 45 133 45z" />
    <glyph glyph-name="o" unicode="o" horiz-adv-x="599" 
d="M300 498c156 0 266 -107 266 -256c0 -150 -110 -255 -266 -255s-267 105 -267 255c0 149 111 256 267 256zM300 122c67 0 114 49 114 120c0 70 -47 120 -114 120c-68 0 -115 -50 -115 -120c0 -71 47 -120 115 -120z" />
    <glyph glyph-name="oacute" unicode="&#xf3;" horiz-adv-x="599" 
d="M306 717h171l-100 -160h-151zM300 498c156 0 266 -107 266 -256c0 -150 -110 -255 -266 -255s-267 105 -267 255c0 149 111 256 267 256zM300 122c67 0 114 49 114 120c0 70 -47 120 -114 120c-68 0 -115 -50 -115 -120c0 -71 47 -120 115 -120z" />
    <glyph glyph-name="ocircumflex" unicode="&#xf4;" horiz-adv-x="599" 
d="M351 550l-51 66l-53 -66h-141l117 164h153l116 -164h-141zM300 498c156 0 266 -107 266 -256c0 -150 -110 -255 -266 -255s-267 105 -267 255c0 149 111 256 267 256zM300 122c67 0 114 49 114 120c0 70 -47 120 -114 120c-68 0 -115 -50 -115 -120
c0 -71 47 -120 115 -120z" />
    <glyph glyph-name="odieresis" unicode="&#xf6;" horiz-adv-x="599" 
d="M190 721c48 0 88 -37 88 -85s-40 -84 -88 -84c-49 0 -88 36 -88 84s39 85 88 85zM411 721c48 0 88 -37 88 -85s-40 -84 -88 -84c-49 0 -89 36 -89 84s40 85 89 85zM300 498c156 0 266 -107 266 -256c0 -150 -110 -255 -266 -255s-267 105 -267 255c0 149 111 256 267 256
zM300 122c67 0 114 49 114 120c0 70 -47 120 -114 120c-68 0 -115 -50 -115 -120c0 -71 47 -120 115 -120z" />
    <glyph glyph-name="ograve" unicode="&#xf2;" horiz-adv-x="599" 
d="M301 717l80 -160h-151l-100 160h171zM300 498c156 0 266 -107 266 -256c0 -150 -110 -255 -266 -255s-267 105 -267 255c0 149 111 256 267 256zM300 122c67 0 114 49 114 120c0 70 -47 120 -114 120c-68 0 -115 -50 -115 -120c0 -71 47 -120 115 -120z" />
    <glyph glyph-name="ohungarumlaut" unicode="&#x151;" horiz-adv-x="599" 
d="M207 718h144l-73 -160h-124zM371 718h144l-73 -160h-124zM300 498c156 0 266 -107 266 -256c0 -150 -110 -255 -266 -255s-267 105 -267 255c0 149 111 256 267 256zM300 122c67 0 114 49 114 120c0 70 -47 120 -114 120c-68 0 -115 -50 -115 -120
c0 -71 47 -120 115 -120z" />
    <glyph glyph-name="omacron" unicode="&#x14d;" horiz-adv-x="599" 
d="M157 694h286v-124h-286v124zM300 498c156 0 266 -107 266 -256c0 -150 -110 -255 -266 -255s-267 105 -267 255c0 149 111 256 267 256zM300 122c67 0 114 49 114 120c0 70 -47 120 -114 120c-68 0 -115 -50 -115 -120c0 -71 47 -120 115 -120z" />
    <glyph glyph-name="oslash" unicode="&#xf8;" horiz-adv-x="593" 
d="M497 421c43 -45 69 -107 69 -179c0 -150 -110 -255 -266 -255c-52 0 -99 12 -139 33l-31 -37l-62 51l29 35c-40 44 -64 104 -64 173c0 149 111 256 267 256c49 0 94 -11 132 -30l37 44l62 -50zM185 242c0 -20 4 -39 11 -55l142 169c-12 4 -24 6 -38 6
c-68 0 -115 -50 -115 -120zM300 122c67 0 114 49 114 120c0 23 -5 45 -15 63l-145 -174c14 -6 29 -9 46 -9z" />
    <glyph glyph-name="otilde" unicode="&#xf5;" horiz-adv-x="599" 
d="M496 705c0 -145 -119 -173 -189 -132l-38 22c-30 18 -40 -2 -40 -24h-119c0 145 119 172 189 132l38 -22c30 -18 40 2 40 24h119zM300 498c156 0 266 -107 266 -256c0 -150 -110 -255 -266 -255s-267 105 -267 255c0 149 111 256 267 256zM300 122c67 0 114 49 114 120
c0 70 -47 120 -114 120c-68 0 -115 -50 -115 -120c0 -71 47 -120 115 -120z" />
    <glyph glyph-name="oe" unicode="&#x153;" horiz-adv-x="959" 
d="M672 498c171 0 274 -122 250 -294h-351c11 -50 44 -89 110 -89c36 0 57 8 72 26h164c-29 -95 -119 -154 -233 -154c-79 0 -145 27 -192 72c-47 -45 -114 -72 -192 -72c-156 0 -267 105 -267 255c0 149 111 256 267 256c77 0 144 -26 190 -71c45 44 108 71 182 71z
M676 378c-57 0 -90 -32 -103 -81h202c-9 56 -44 81 -99 81zM300 122c67 0 114 49 114 120c0 70 -47 120 -114 120c-68 0 -115 -50 -115 -120c0 -71 47 -120 115 -120z" />
    <glyph glyph-name="p" unicode="p" horiz-adv-x="624" 
d="M350 496c131 0 241 -108 241 -253c0 -144 -110 -253 -241 -253c-53 0 -96 14 -132 36v-258h-163v717h163v-25c36 22 79 36 132 36zM318 123c66 0 114 53 114 120s-48 121 -114 121c-35 0 -70 -11 -100 -45v-152c30 -34 65 -44 100 -44z" />
    <glyph glyph-name="thorn" unicode="&#xfe;" horiz-adv-x="624" 
d="M350 496c131 0 241 -108 241 -253c0 -144 -110 -253 -241 -253c-53 0 -96 14 -132 36v-258h-163v932h163v-240c36 22 79 36 132 36zM318 123c66 0 114 53 114 120s-48 121 -114 121c-35 0 -70 -11 -100 -45v-152c30 -34 65 -44 100 -44z" />
    <glyph glyph-name="q" unicode="q" horiz-adv-x="624" 
d="M407 485h162v-717h-162v259c-36 -23 -79 -37 -133 -37c-131 0 -241 109 -241 253c0 145 110 253 241 253c54 0 97 -14 133 -37v26zM307 123c35 0 69 10 100 45v151c-31 34 -65 45 -100 45c-66 0 -115 -54 -115 -121s49 -120 115 -120z" />
    <glyph glyph-name="r" unicode="r" horiz-adv-x="410" 
d="M385 493v-154c-79 -3 -129 -24 -167 -61v-278h-163v485h163v-52c43 37 95 60 167 60z" />
    <glyph glyph-name="racute" unicode="&#x155;" horiz-adv-x="410" 
d="M394 717l-100 -160h-151l80 160h171zM218 485v-52c43 37 95 60 167 60v-154c-79 -3 -129 -24 -167 -61v-278h-163v485h163z" />
    <glyph glyph-name="rcaron" unicode="&#x159;" horiz-adv-x="410" 
d="M294 552h-156l-116 160h142l53 -66l51 66h142zM218 485v-52c43 37 95 60 167 60v-154c-79 -3 -129 -24 -167 -61v-278h-163v485h163z" />
    <glyph glyph-name="rcommaaccent" unicode="&#x157;" horiz-adv-x="410" 
d="M385 493v-154c-79 -3 -129 -24 -167 -61v-278h-163v485h163v-52c43 37 95 60 167 60zM133 -44c46 0 84 -36 84 -80c0 -32 -11 -40 -79 -141h-83l41 74c-31 13 -48 39 -48 67c0 44 38 80 85 80z" />
    <glyph glyph-name="s" unicode="s" horiz-adv-x="521" 
d="M166 166c7 -42 45 -60 96 -60c43 0 70 12 70 33c0 17 -19 29 -51 34l-98 17c-83 14 -142 61 -142 146c0 102 87 162 216 162c115 0 219 -39 226 -167h-143c-3 36 -38 52 -83 52c-42 0 -61 -15 -61 -33c0 -17 12 -32 51 -39l90 -15c90 -17 151 -61 151 -147
c0 -112 -100 -162 -227 -162c-125 0 -228 51 -239 180z" />
    <glyph glyph-name="sacute" unicode="&#x15b;" horiz-adv-x="521" 
d="M266 717h171l-100 -160h-151zM166 166c7 -42 45 -60 96 -60c43 0 70 12 70 33c0 17 -19 29 -51 34l-98 17c-83 14 -142 61 -142 146c0 102 87 162 216 162c115 0 219 -39 226 -167h-143c-3 36 -38 52 -83 52c-42 0 -61 -15 -61 -33c0 -17 12 -32 51 -39l90 -15
c90 -17 151 -61 151 -147c0 -112 -100 -162 -227 -162c-125 0 -228 51 -239 180z" />
    <glyph glyph-name="scaron" unicode="&#x161;" horiz-adv-x="521" 
d="M311 712h142l-116 -160h-156l-116 160h142l53 -66zM166 166c7 -42 45 -60 96 -60c43 0 70 12 70 33c0 17 -19 29 -51 34l-98 17c-83 14 -142 61 -142 146c0 102 87 162 216 162c115 0 219 -39 226 -167h-143c-3 36 -38 52 -83 52c-42 0 -61 -15 -61 -33
c0 -17 12 -32 51 -39l90 -15c90 -17 151 -61 151 -147c0 -112 -100 -162 -227 -162c-125 0 -228 51 -239 180z" />
    <glyph glyph-name="scedilla" unicode="&#x15f;" horiz-adv-x="521" 
d="M166 166c7 -42 45 -60 96 -60c43 0 70 12 70 33c0 17 -19 29 -51 34l-98 17c-83 14 -142 61 -142 146c0 102 87 162 216 162c115 0 219 -39 226 -167h-143c-3 36 -38 52 -83 52c-42 0 -61 -15 -61 -33c0 -17 12 -32 51 -39l90 -15c90 -17 151 -61 151 -147
c0 -112 -100 -162 -227 -162c-125 0 -228 51 -239 180zM340 -51l-71 -164h-135l54 164h152z" />
    <glyph glyph-name="scommaaccent" unicode="&#x219;" horiz-adv-x="521" 
d="M166 166c7 -42 45 -60 96 -60c43 0 70 12 70 33c0 17 -19 29 -51 34l-98 17c-83 14 -142 61 -142 146c0 102 87 162 216 162c115 0 219 -39 226 -167h-143c-3 36 -38 52 -83 52c-42 0 -61 -15 -61 -33c0 -17 12 -32 51 -39l90 -15c90 -17 151 -61 151 -147
c0 -112 -100 -162 -227 -162c-125 0 -228 51 -239 180zM166 -265l41 74c-31 13 -48 39 -48 67c0 44 38 80 85 80c46 0 84 -36 84 -80c0 -32 -11 -40 -79 -141h-83z" />
    <glyph glyph-name="germandbls" unicode="&#xdf;" horiz-adv-x="665" 
d="M492 359c77 -21 131 -71 131 -166c0 -124 -92 -198 -257 -198c-20 0 -41 1 -71 2v129h50c78 0 118 30 118 79c0 47 -36 73 -92 73h-66v108c78 15 105 57 105 97c0 45 -30 74 -87 74c-80 0 -106 -66 -106 -162v-395h-162v405c0 184 91 288 267 288c149 0 246 -74 248 -198
c1 -62 -23 -109 -78 -136z" />
    <glyph glyph-name="t" unicode="t" horiz-adv-x="470" 
d="M426 156l18 -145c-50 -21 -102 -24 -130 -24c-132 0 -212 86 -212 217v142h-95v139h95v165h162v-165h165v-139h-165v-137c0 -50 29 -73 76 -73c31 0 57 9 86 20z" />
    <glyph glyph-name="tcaron" unicode="&#x165;" horiz-adv-x="470" 
d="M461 718l-39 -204h-115l6 204h148zM340 136c31 0 57 9 86 20l18 -145c-50 -21 -102 -24 -130 -24c-132 0 -212 86 -212 217v142h-95v139h95v165h162v-165h165v-139h-165v-137c0 -50 29 -73 76 -73z" />
    <glyph glyph-name="uni0163" unicode="&#x163;" horiz-adv-x="470" 
d="M314 -13c-132 0 -212 86 -212 217v142h-95v139h95v165h162v-165h165v-139h-165v-137c0 -50 29 -73 76 -73c31 0 57 9 86 20l18 -145c-50 -21 -102 -24 -130 -24zM145 -215l54 164h152l-71 -164h-135z" />
    <glyph glyph-name="uni021B" unicode="&#x21b;" horiz-adv-x="470" 
d="M444 11c-50 -21 -102 -24 -130 -24c-132 0 -212 86 -212 217v142h-95v139h95v165h162v-165h165v-139h-165v-137c0 -50 29 -73 76 -73c31 0 57 9 86 20zM255 -44c46 0 84 -36 84 -80c0 -32 -11 -40 -79 -141h-83l41 74c-31 13 -48 39 -48 67c0 44 38 80 85 80z" />
    <glyph glyph-name="u" unicode="u" horiz-adv-x="606" 
d="M389 485h162v-485h-162v34c-39 -30 -81 -47 -133 -47c-123 0 -207 85 -207 223v275h162v-250c0 -69 36 -102 89 -102c30 0 61 17 89 48v304z" />
    <glyph glyph-name="uacute" unicode="&#xfa;" horiz-adv-x="606" 
d="M481 717l-100 -160h-151l80 160h171zM389 485h162v-485h-162v34c-39 -30 -81 -47 -133 -47c-123 0 -207 85 -207 223v275h162v-250c0 -69 36 -102 89 -102c30 0 61 17 89 48v304z" />
    <glyph glyph-name="ucircumflex" unicode="&#xfb;" horiz-adv-x="606" 
d="M304 616l-53 -66h-141l117 164h153l116 -164h-141zM389 485h162v-485h-162v34c-39 -30 -81 -47 -133 -47c-123 0 -207 85 -207 223v275h162v-250c0 -69 36 -102 89 -102c30 0 61 17 89 48v304z" />
    <glyph glyph-name="udieresis" unicode="&#xfc;" horiz-adv-x="606" 
d="M194 552c-49 0 -88 36 -88 84s39 85 88 85c48 0 88 -37 88 -85s-40 -84 -88 -84zM415 552c-49 0 -89 36 -89 84s40 85 89 85c48 0 88 -37 88 -85s-40 -84 -88 -84zM389 485h162v-485h-162v34c-39 -30 -81 -47 -133 -47c-123 0 -207 85 -207 223v275h162v-250
c0 -69 36 -102 89 -102c30 0 61 17 89 48v304z" />
    <glyph glyph-name="ugrave" unicode="&#xf9;" horiz-adv-x="606" 
d="M385 557h-151l-100 160h171zM389 485h162v-485h-162v34c-39 -30 -81 -47 -133 -47c-123 0 -207 85 -207 223v275h162v-250c0 -69 36 -102 89 -102c30 0 61 17 89 48v304z" />
    <glyph glyph-name="uhungarumlaut" unicode="&#x171;" horiz-adv-x="606" 
d="M355 718l-73 -160h-124l53 160h144zM446 558h-124l53 160h144zM389 485h162v-485h-162v34c-39 -30 -81 -47 -133 -47c-123 0 -207 85 -207 223v275h162v-250c0 -69 36 -102 89 -102c30 0 61 17 89 48v304z" />
    <glyph glyph-name="umacron" unicode="&#x16b;" horiz-adv-x="606" 
d="M447 694v-124h-286v124h286zM389 485h162v-485h-162v34c-39 -30 -81 -47 -133 -47c-123 0 -207 85 -207 223v275h162v-250c0 -69 36 -102 89 -102c30 0 61 17 89 48v304z" />
    <glyph glyph-name="uogonek" unicode="&#x173;" horiz-adv-x="606" 
d="M576 -61l15 -120c-14 -7 -48 -14 -81 -14c-93 0 -164 46 -164 127c0 28 14 58 43 82v20c-39 -30 -81 -47 -133 -47c-123 0 -207 85 -207 223v275h162v-250c0 -69 36 -102 89 -102c30 0 61 17 89 48v304h162v-485h-12c-45 -9 -60 -21 -60 -40c0 -17 16 -28 50 -28
c16 0 28 2 47 7z" />
    <glyph glyph-name="uring" unicode="&#x16f;" horiz-adv-x="606" 
d="M304 548c-73 0 -124 47 -124 116s51 115 124 115s124 -46 124 -115s-51 -116 -124 -116zM304 706c-27 0 -44 -17 -44 -42c0 -26 17 -44 44 -44s44 18 44 44c0 25 -17 42 -44 42zM389 485h162v-485h-162v34c-39 -30 -81 -47 -133 -47c-123 0 -207 85 -207 223v275h162
v-250c0 -69 36 -102 89 -102c30 0 61 17 89 48v304z" />
    <glyph glyph-name="v" unicode="v" horiz-adv-x="594" 
d="M413 485h171l-210 -485h-154l-210 485h171l116 -280z" />
    <glyph glyph-name="w" unicode="w" horiz-adv-x="803" 
d="M623 485h170l-160 -485h-144l-87 282l-88 -282h-144l-160 485h170l68 -279l89 279h129l89 -277z" />
    <glyph glyph-name="wacute" unicode="&#x1e83;" horiz-adv-x="803" 
d="M579 717l-100 -160h-151l80 160h171zM623 485h170l-160 -485h-144l-87 282l-88 -282h-144l-160 485h170l68 -279l89 279h129l89 -277z" />
    <glyph glyph-name="wcircumflex" unicode="&#x175;" horiz-adv-x="803" 
d="M402 616l-53 -66h-141l117 164h153l116 -164h-141zM623 485h170l-160 -485h-144l-87 282l-88 -282h-144l-160 485h170l68 -279l89 279h129l89 -277z" />
    <glyph glyph-name="wdieresis" unicode="&#x1e85;" horiz-adv-x="803" 
d="M292 552c-49 0 -88 36 -88 84s39 85 88 85c48 0 88 -37 88 -85s-40 -84 -88 -84zM513 552c-49 0 -89 36 -89 84s40 85 89 85c48 0 88 -37 88 -85s-40 -84 -88 -84zM623 485h170l-160 -485h-144l-87 282l-88 -282h-144l-160 485h170l68 -279l89 279h129l89 -277z" />
    <glyph glyph-name="wgrave" unicode="&#x1e81;" horiz-adv-x="803" 
d="M483 557h-151l-100 160h171zM623 485h170l-160 -485h-144l-87 282l-88 -282h-144l-160 485h170l68 -279l89 279h129l89 -277z" />
    <glyph glyph-name="x" unicode="x" horiz-adv-x="568" 
d="M390 242l-1 -1l170 -241h-178l-97 139l-97 -139h-179l170 242l-170 243h185l91 -128l90 128h185z" />
    <glyph glyph-name="y" unicode="y" horiz-adv-x="628" 
d="M447 485h171l-302 -716h-170l101 241l-237 475h172l138 -301z" />
    <glyph glyph-name="yacute" unicode="&#xfd;" horiz-adv-x="628" 
d="M494 717l-100 -160h-151l80 160h171zM447 485h171l-302 -716h-170l101 241l-237 475h172l138 -301z" />
    <glyph glyph-name="ycircumflex" unicode="&#x177;" horiz-adv-x="628" 
d="M317 616l-53 -66h-141l117 164h153l116 -164h-141zM447 485h171l-302 -716h-170l101 241l-237 475h172l138 -301z" />
    <glyph glyph-name="ydieresis" unicode="&#xff;" horiz-adv-x="628" 
d="M207 552c-49 0 -88 36 -88 84s39 85 88 85c48 0 88 -37 88 -85s-40 -84 -88 -84zM428 552c-49 0 -89 36 -89 84s40 85 89 85c48 0 88 -37 88 -85s-40 -84 -88 -84zM447 485h171l-302 -716h-170l101 241l-237 475h172l138 -301z" />
    <glyph glyph-name="ygrave" unicode="&#x1ef3;" horiz-adv-x="628" 
d="M398 557h-151l-100 160h171zM447 485h171l-302 -716h-170l101 241l-237 475h172l138 -301z" />
    <glyph glyph-name="z" unicode="z" horiz-adv-x="512" 
d="M482 485v-86l-220 -265h220v-134h-452v79l228 271h-224v135h448z" />
    <glyph glyph-name="zacute" unicode="&#x17a;" horiz-adv-x="512" 
d="M433 717l-100 -160h-151l80 160h171zM482 485v-86l-220 -265h220v-134h-452v79l228 271h-224v135h448z" />
    <glyph glyph-name="zcaron" unicode="&#x17e;" horiz-adv-x="512" 
d="M333 552h-156l-116 160h142l53 -66l51 66h142zM482 485v-86l-220 -265h220v-134h-452v79l228 271h-224v135h448z" />
    <glyph glyph-name="zdotaccent" unicode="&#x17c;" horiz-adv-x="512" 
d="M256 550c-51 0 -92 38 -92 88s41 88 92 88c50 0 91 -38 91 -88s-41 -88 -91 -88zM482 485v-86l-220 -265h220v-134h-452v79l228 271h-224v135h448z" />
    <glyph glyph-name="germandbls.case" horiz-adv-x="753" 
d="M557 411c96 -22 167 -96 167 -200c0 -134 -112 -226 -273 -226c-39 0 -88 5 -130 15v142c46 -14 87 -20 113 -20c74 0 118 38 118 89c0 54 -51 87 -119 87h-71v70l117 164h-131c-69 0 -113 -42 -113 -108v-424h-168v425c0 153 108 255 281 255h345v-92z" />
    <glyph glyph-name="l.ss01" horiz-adv-x="382" 
d="M218 710v-523c0 -37 14 -56 54 -56c18 0 43 4 68 10l18 -136c-49 -14 -85 -20 -121 -20c-114 0 -182 68 -182 184v541h163z" />
    <glyph glyph-name="lacute.ss01" horiz-adv-x="382" 
d="M141 942h171l-100 -160h-151zM218 710v-523c0 -37 14 -56 54 -56c18 0 43 4 68 10l18 -136c-49 -14 -85 -20 -121 -20c-114 0 -182 68 -182 184v541h163z" />
    <glyph glyph-name="lcaron.ss01" horiz-adv-x="382" 
d="M218 710v-523c0 -37 14 -56 54 -56c18 0 43 4 68 10l18 -136c-49 -14 -85 -20 -121 -20c-114 0 -182 68 -182 184v541h163zM280 710h148l-39 -204h-115z" />
    <glyph glyph-name="lcommaaccent.ss01" horiz-adv-x="382" 
d="M218 710v-523c0 -37 14 -56 54 -56c18 0 43 4 68 10l18 -136c-49 -14 -85 -20 -121 -20c-114 0 -182 68 -182 184v541h163zM126 -265l41 74c-31 13 -48 39 -48 67c0 44 38 80 85 80c46 0 84 -36 84 -80c0 -32 -11 -40 -79 -141h-83z" />
    <glyph glyph-name="ldot.ss01" horiz-adv-x="464" 
d="M218 710v-523c0 -37 14 -56 54 -56c18 0 43 4 68 10l18 -136c-49 -14 -85 -20 -121 -20c-114 0 -182 68 -182 184v541h163zM346 256c-51 0 -92 38 -92 88s41 88 92 88c50 0 91 -38 91 -88s-41 -88 -91 -88z" />
    <glyph glyph-name="lslash.ss01" horiz-adv-x="382" 
d="M340 141l18 -136c-49 -14 -85 -20 -121 -20c-114 0 -182 68 -182 184v88l-53 -19v147l53 19v306h163v-246l70 25v-146l-70 -26v-130c0 -37 14 -56 54 -56c18 0 43 4 68 10z" />
    <glyph glyph-name="y.ss04" horiz-adv-x="611" 
d="M393 485h162v-488c0 -152 -104 -240 -256 -240c-148 0 -251 84 -259 210h160c7 -43 43 -73 99 -73c54 0 94 34 94 100v71c-39 -30 -81 -47 -133 -47c-123 0 -207 85 -207 223v244h163v-218c0 -69 35 -102 88 -102c30 0 61 16 89 48v272z" />
    <glyph glyph-name="yacute.ss04" horiz-adv-x="611" 
d="M482 717l-100 -160h-151l80 160h171zM393 485h162v-488c0 -152 -104 -240 -256 -240c-148 0 -251 84 -259 210h160c7 -43 43 -73 99 -73c54 0 94 34 94 100v71c-39 -30 -81 -47 -133 -47c-123 0 -207 85 -207 223v244h163v-218c0 -69 35 -102 88 -102c30 0 61 16 89 48
v272z" />
    <glyph glyph-name="ycircumflex.ss04" horiz-adv-x="611" 
d="M305 616l-53 -66h-141l117 164h153l116 -164h-141zM393 485h162v-488c0 -152 -104 -240 -256 -240c-148 0 -251 84 -259 210h160c7 -43 43 -73 99 -73c54 0 94 34 94 100v71c-39 -30 -81 -47 -133 -47c-123 0 -207 85 -207 223v244h163v-218c0 -69 35 -102 88 -102
c30 0 61 16 89 48v272z" />
    <glyph glyph-name="ydieresis.ss04" horiz-adv-x="611" 
d="M195 552c-49 0 -88 36 -88 84s39 85 88 85c48 0 88 -37 88 -85s-40 -84 -88 -84zM416 552c-49 0 -89 36 -89 84s40 85 89 85c48 0 88 -37 88 -85s-40 -84 -88 -84zM393 485h162v-488c0 -152 -104 -240 -256 -240c-148 0 -251 84 -259 210h160c7 -43 43 -73 99 -73
c54 0 94 34 94 100v71c-39 -30 -81 -47 -133 -47c-123 0 -207 85 -207 223v244h163v-218c0 -69 35 -102 88 -102c30 0 61 16 89 48v272z" />
    <glyph glyph-name="ygrave.ss04" horiz-adv-x="611" 
d="M386 557h-151l-100 160h171zM393 485h162v-488c0 -152 -104 -240 -256 -240c-148 0 -251 84 -259 210h160c7 -43 43 -73 99 -73c54 0 94 34 94 100v71c-39 -30 -81 -47 -133 -47c-123 0 -207 85 -207 223v244h163v-218c0 -69 35 -102 88 -102c30 0 61 16 89 48v272z" />
    <glyph glyph-name="a.ss06" horiz-adv-x="550" 
d="M282 498c128 0 219 -60 219 -182v-316h-144v26c-35 -23 -78 -39 -131 -39c-121 0 -195 60 -195 158c0 92 74 142 191 142h135v29c0 39 -26 60 -75 60c-50 0 -80 -19 -85 -56h-147c5 126 113 178 232 178zM251 104c38 0 68 10 106 34v49h-128c-35 0 -51 -16 -51 -36
c0 -23 20 -47 73 -47z" />
    <glyph glyph-name="aacute.ss06" horiz-adv-x="550" 
d="M456 717l-100 -160h-151l80 160h171zM282 498c128 0 219 -60 219 -182v-316h-144v26c-35 -23 -78 -39 -131 -39c-121 0 -195 60 -195 158c0 92 74 142 191 142h135v29c0 39 -26 60 -75 60c-50 0 -80 -19 -85 -56h-147c5 126 113 178 232 178zM251 104c38 0 68 10 106 34
v49h-128c-35 0 -51 -16 -51 -36c0 -23 20 -47 73 -47z" />
    <glyph glyph-name="abreve.ss06" horiz-adv-x="550" 
d="M279 544c-102 0 -175 59 -175 169h115c0 -45 26 -65 60 -65c33 0 60 20 60 65h115c0 -110 -73 -169 -175 -169zM282 498c128 0 219 -60 219 -182v-316h-144v26c-35 -23 -78 -39 -131 -39c-121 0 -195 60 -195 158c0 92 74 142 191 142h135v29c0 39 -26 60 -75 60
c-50 0 -80 -19 -85 -56h-147c5 126 113 178 232 178zM251 104c38 0 68 10 106 34v49h-128c-35 0 -51 -16 -51 -36c0 -23 20 -47 73 -47z" />
    <glyph glyph-name="uni01CE.ss06" horiz-adv-x="550" 
d="M356 552h-156l-116 160h142l53 -66l51 66h142zM282 498c128 0 219 -60 219 -182v-316h-144v26c-35 -23 -78 -39 -131 -39c-121 0 -195 60 -195 158c0 92 74 142 191 142h135v29c0 39 -26 60 -75 60c-50 0 -80 -19 -85 -56h-147c5 126 113 178 232 178zM251 104
c38 0 68 10 106 34v49h-128c-35 0 -51 -16 -51 -36c0 -23 20 -47 73 -47z" />
    <glyph glyph-name="acircumflex.ss06" horiz-adv-x="550" 
d="M279 616l-53 -66h-141l117 164h153l116 -164h-141zM282 498c128 0 219 -60 219 -182v-316h-144v26c-35 -23 -78 -39 -131 -39c-121 0 -195 60 -195 158c0 92 74 142 191 142h135v29c0 39 -26 60 -75 60c-50 0 -80 -19 -85 -56h-147c5 126 113 178 232 178zM251 104
c38 0 68 10 106 34v49h-128c-35 0 -51 -16 -51 -36c0 -23 20 -47 73 -47z" />
    <glyph glyph-name="adieresis.ss06" horiz-adv-x="550" 
d="M169 552c-49 0 -88 36 -88 84s39 85 88 85c48 0 88 -37 88 -85s-40 -84 -88 -84zM390 552c-49 0 -89 36 -89 84s40 85 89 85c48 0 88 -37 88 -85s-40 -84 -88 -84zM282 498c128 0 219 -60 219 -182v-316h-144v26c-35 -23 -78 -39 -131 -39c-121 0 -195 60 -195 158
c0 92 74 142 191 142h135v29c0 39 -26 60 -75 60c-50 0 -80 -19 -85 -56h-147c5 126 113 178 232 178zM251 104c38 0 68 10 106 34v49h-128c-35 0 -51 -16 -51 -36c0 -23 20 -47 73 -47z" />
    <glyph glyph-name="agrave.ss06" horiz-adv-x="550" 
d="M360 557h-151l-100 160h171zM282 498c128 0 219 -60 219 -182v-316h-144v26c-35 -23 -78 -39 -131 -39c-121 0 -195 60 -195 158c0 92 74 142 191 142h135v29c0 39 -26 60 -75 60c-50 0 -80 -19 -85 -56h-147c5 126 113 178 232 178zM251 104c38 0 68 10 106 34v49h-128
c-35 0 -51 -16 -51 -36c0 -23 20 -47 73 -47z" />
    <glyph glyph-name="amacron.ss06" horiz-adv-x="550" 
d="M422 694v-124h-286v124h286zM282 498c128 0 219 -60 219 -182v-316h-144v26c-35 -23 -78 -39 -131 -39c-121 0 -195 60 -195 158c0 92 74 142 191 142h135v29c0 39 -26 60 -75 60c-50 0 -80 -19 -85 -56h-147c5 126 113 178 232 178zM251 104c38 0 68 10 106 34v49h-128
c-35 0 -51 -16 -51 -36c0 -23 20 -47 73 -47z" />
    <glyph glyph-name="aogonek.ss06" horiz-adv-x="550" 
d="M530 -60l15 -120c-14 -7 -48 -14 -81 -14c-93 0 -164 46 -164 127c0 32 18 66 57 92v1c-35 -23 -78 -39 -131 -39c-121 0 -195 60 -195 158c0 92 74 142 191 142h135v29c0 39 -26 60 -75 60c-50 0 -80 -19 -85 -56h-147c5 126 113 178 232 178c128 0 219 -60 219 -182
v-316h-13c-41 -9 -55 -21 -55 -39c0 -17 16 -28 50 -28c16 0 28 2 47 7zM251 104c38 0 68 10 106 34v49h-128c-35 0 -51 -16 -51 -36c0 -23 20 -47 73 -47z" />
    <glyph glyph-name="aring.ss06" horiz-adv-x="550" 
d="M279 548c-73 0 -124 47 -124 116s51 115 124 115s124 -46 124 -115s-51 -116 -124 -116zM279 706c-27 0 -44 -17 -44 -42c0 -26 17 -44 44 -44s44 18 44 44c0 25 -17 42 -44 42zM282 498c128 0 219 -60 219 -182v-316h-144v26c-35 -23 -78 -39 -131 -39
c-121 0 -195 60 -195 158c0 92 74 142 191 142h135v29c0 39 -26 60 -75 60c-50 0 -80 -19 -85 -56h-147c5 126 113 178 232 178zM251 104c38 0 68 10 106 34v49h-128c-35 0 -51 -16 -51 -36c0 -23 20 -47 73 -47z" />
    <glyph glyph-name="atilde.ss06" horiz-adv-x="550" 
d="M248 595c-30 18 -40 -2 -40 -24h-119c0 145 119 172 189 132l38 -22c30 -18 40 2 40 24h119c0 -145 -119 -173 -189 -132zM282 498c128 0 219 -60 219 -182v-316h-144v26c-35 -23 -78 -39 -131 -39c-121 0 -195 60 -195 158c0 92 74 142 191 142h135v29
c0 39 -26 60 -75 60c-50 0 -80 -19 -85 -56h-147c5 126 113 178 232 178zM251 104c38 0 68 10 106 34v49h-128c-35 0 -51 -16 -51 -36c0 -23 20 -47 73 -47z" />
    <glyph glyph-name="ordfeminine" unicode="&#xaa;" horiz-adv-x="363" 
d="M182 685c93 0 155 -51 155 -137v-197h-106v18c-21 -14 -47 -24 -80 -24c-80 0 -135 39 -135 105c0 61 49 95 129 95h86v3c0 27 -10 51 -49 51c-27 0 -47 -13 -49 -37h-104c2 86 77 123 153 123zM162 425c26 0 45 6 69 22v34h-83c-19 0 -32 -10 -32 -23
c0 -17 14 -33 46 -33z" />
    <glyph glyph-name="ordmasculine" unicode="&#xba;" horiz-adv-x="390" 
d="M195 345c-98 0 -178 71 -178 172c0 100 80 170 178 170c99 0 178 -70 178 -170c0 -101 -79 -172 -178 -172zM195 440c40 0 73 32 73 77c0 43 -33 73 -73 73s-74 -30 -74 -73c0 -45 34 -77 74 -77z" />
    <glyph glyph-name="zero" unicode="0" horiz-adv-x="718" 
d="M359 693c196 0 315 -147 315 -353s-119 -353 -315 -353s-315 147 -315 353s119 353 315 353zM359 134c101 0 155 88 155 206s-54 206 -155 206s-155 -88 -155 -206s54 -206 155 -206z" />
    <glyph glyph-name="one" unicode="1" horiz-adv-x="531" 
d="M368 137h158v-137h-491v137h170v362l-160 -49v153l222 77h101v-543z" />
    <glyph glyph-name="two" unicode="2" horiz-adv-x="572" 
d="M288 137h243v-137h-485v81l229 264c51 60 84 97 84 138c0 34 -23 67 -79 67c-52 0 -82 -32 -87 -86h-161c4 140 100 229 255 229s239 -92 239 -211c0 -65 -37 -120 -118 -211z" />
    <glyph glyph-name="three" unicode="3" horiz-adv-x="581" 
d="M449 341c58 -26 97 -72 97 -145c0 -122 -104 -209 -249 -209c-149 0 -248 81 -264 212h158c8 -46 48 -76 106 -76c54 0 94 31 94 76c0 47 -41 76 -106 76h-56v124h56c56 0 91 32 91 78c0 47 -35 77 -85 77c-54 0 -89 -31 -93 -79h-157c8 127 101 218 251 218
c142 0 235 -87 235 -212c0 -67 -31 -112 -78 -140z" />
    <glyph glyph-name="four" unicode="4" horiz-adv-x="656" 
d="M622 261v-141h-85v-120h-159v120h-346v105l185 455h162l-160 -419h159v187h159v-187h85z" />
    <glyph glyph-name="five" unicode="5" horiz-adv-x="611" 
d="M323 442c153 0 243 -96 243 -221c0 -140 -105 -234 -258 -234c-150 0 -250 86 -265 215h159c13 -47 49 -76 109 -76c59 0 101 37 101 94c0 55 -44 91 -113 91h-221v369h456v-144h-304l-1 -94h94z" />
    <glyph glyph-name="six" unicode="6" horiz-adv-x="616" 
d="M329 477c151 -8 253 -110 253 -240c0 -142 -112 -250 -275 -250c-164 0 -274 110 -274 247c0 56 23 108 58 165l177 281h191zM307 122c69 0 116 52 116 109s-46 110 -116 110c-30 0 -59 -8 -80 -23l-4 -7c-24 -34 -33 -56 -33 -81c0 -56 48 -108 117 -108z" />
    <glyph glyph-name="seven" unicode="7" horiz-adv-x="524" 
d="M10 680h496v-95l-261 -585h-184l240 529h-291v151z" />
    <glyph glyph-name="eight" unicode="8" horiz-adv-x="617" 
d="M474 361c69 -34 109 -92 109 -164c0 -128 -102 -210 -275 -210c-172 0 -275 82 -275 210c0 72 40 130 109 164c-51 30 -81 78 -81 138c0 116 103 194 247 194s246 -78 246 -194c0 -60 -30 -107 -80 -138zM308 571c-55 0 -93 -34 -93 -82c0 -47 38 -84 93 -84s94 38 94 84
c0 47 -39 82 -94 82zM308 119c59 0 103 39 103 89s-44 88 -103 88s-102 -37 -102 -88s43 -89 102 -89z" />
    <glyph glyph-name="nine" unicode="9" horiz-adv-x="616" 
d="M309 693c164 0 274 -110 274 -247c0 -56 -23 -108 -58 -165l-177 -281h-191l130 203c-151 8 -253 110 -253 240c0 142 112 250 275 250zM389 362l4 7c24 34 33 56 33 81c0 56 -48 108 -117 108s-116 -52 -116 -109s46 -110 116 -110c30 0 59 8 80 23z" />
    <glyph glyph-name="zero.osf" horiz-adv-x="640" 
d="M321 553c166 0 286 -114 286 -283c0 -168 -120 -282 -286 -282c-167 0 -288 114 -288 282c0 169 121 283 288 283zM321 127c74 0 135 58 135 143s-61 143 -135 143c-76 0 -137 -58 -137 -143s61 -143 137 -143z" />
    <glyph glyph-name="one.osf" horiz-adv-x="531" 
d="M368 137h158v-137h-491v137h170v228l-160 -48v153l222 77h101v-410z" />
    <glyph glyph-name="two.osf" horiz-adv-x="572" 
d="M354 137h177v-137h-485v87l146 94c79 51 158 107 158 155c0 32 -20 64 -74 64c-50 0 -82 -31 -85 -82h-159c3 136 88 230 243 230c157 0 243 -96 243 -202c0 -87 -63 -148 -164 -209z" />
    <glyph glyph-name="three.osf" horiz-adv-x="581" 
d="M449 201c58 -26 97 -72 97 -145c0 -122 -104 -209 -249 -209c-149 0 -248 81 -264 212h158c8 -46 48 -76 106 -76c54 0 94 31 94 76c0 47 -41 76 -106 76h-56v124h56c56 0 91 32 91 78c0 47 -35 77 -85 77c-54 0 -89 -31 -93 -79h-157c8 127 101 218 251 218
c142 0 235 -87 235 -212c0 -67 -31 -112 -78 -140z" />
    <glyph glyph-name="four.osf" horiz-adv-x="656" 
d="M622 124v-141h-85v-120h-159v120h-346v105l185 455h162l-160 -419h159v187h159v-187h85z" />
    <glyph glyph-name="five.osf" horiz-adv-x="611" 
d="M323 305c153 0 243 -96 243 -221c0 -140 -105 -234 -258 -234c-150 0 -250 86 -265 215h159c13 -47 49 -76 109 -76c59 0 101 37 101 94c0 55 -44 91 -113 91h-221v369h456v-144h-304l-1 -94h94z" />
    <glyph glyph-name="six.osf" horiz-adv-x="616" 
d="M329 477c151 -8 253 -110 253 -240c0 -142 -112 -250 -275 -250c-164 0 -274 110 -274 247c0 56 23 108 58 165l177 281h191zM307 122c69 0 116 52 116 109s-46 110 -116 110c-30 0 -59 -8 -80 -23l-4 -7c-24 -34 -33 -56 -33 -81c0 -56 48 -108 117 -108z" />
    <glyph glyph-name="seven.osf" horiz-adv-x="524" 
d="M10 540h496v-95l-261 -585h-184l240 529h-291v151z" />
    <glyph glyph-name="eight.osf" horiz-adv-x="617" 
d="M474 361c69 -34 109 -92 109 -164c0 -128 -102 -210 -275 -210c-172 0 -275 82 -275 210c0 72 40 130 109 164c-51 30 -81 78 -81 138c0 116 103 194 247 194s246 -78 246 -194c0 -60 -30 -107 -80 -138zM308 571c-55 0 -93 -34 -93 -82c0 -47 38 -84 93 -84s94 38 94 84
c0 47 -39 82 -94 82zM308 119c59 0 103 39 103 89s-44 88 -103 88s-102 -37 -102 -88s43 -89 102 -89z" />
    <glyph glyph-name="nine.osf" horiz-adv-x="616" 
d="M309 557c164 0 274 -110 274 -247c0 -56 -23 -108 -58 -165l-177 -281h-191l130 203c-151 8 -253 110 -253 240c0 142 112 250 275 250zM389 226l4 7c24 34 33 56 33 81c0 56 -48 108 -117 108s-116 -52 -116 -109s46 -110 116 -110c30 0 59 8 80 23z" />
    <glyph glyph-name="zero.osf.zero" horiz-adv-x="640" 
d="M321 553c166 0 286 -114 286 -283c0 -168 -120 -282 -286 -282c-167 0 -288 114 -288 282c0 169 121 283 288 283zM321 413c-76 0 -137 -58 -137 -143c0 -25 5 -47 14 -67l190 193c-20 11 -43 17 -67 17zM321 127c74 0 135 58 135 143c0 26 -6 49 -15 69l-191 -193
c21 -12 45 -19 71 -19z" />
    <glyph glyph-name="zero.tf" horiz-adv-x="670" 
d="M335 693c196 0 305 -147 305 -353s-109 -353 -305 -353s-306 147 -306 353s110 353 306 353zM335 134c101 0 144 88 144 206s-43 206 -144 206c-102 0 -145 -88 -145 -206s43 -206 145 -206z" />
    <glyph glyph-name="one.tf" horiz-adv-x="670" 
d="M609 137v-137h-537v137h201v362l-160 -49v153l222 77h101v-543h173z" />
    <glyph glyph-name="two.tf" horiz-adv-x="670" 
d="M339 137h243v-137h-485v81l229 264c51 60 84 97 84 138c0 34 -23 67 -79 67c-52 0 -82 -32 -87 -86h-161c4 140 100 229 255 229s239 -92 239 -211c0 -65 -37 -120 -118 -211z" />
    <glyph glyph-name="three.tf" horiz-adv-x="670" 
d="M500 341c58 -26 97 -72 97 -145c0 -122 -104 -209 -249 -209c-149 0 -248 81 -264 212h158c8 -46 48 -76 106 -76c54 0 94 31 94 76c0 47 -41 76 -106 76h-56v124h56c56 0 91 32 91 78c0 47 -35 77 -85 77c-54 0 -89 -31 -93 -79h-157c8 127 101 218 251 218
c142 0 235 -87 235 -212c0 -67 -31 -112 -78 -140z" />
    <glyph glyph-name="four.tf" horiz-adv-x="670" 
d="M631 261v-141h-85v-120h-159v120h-346v105l185 455h162l-160 -419h159v187h159v-187h85z" />
    <glyph glyph-name="five.tf" horiz-adv-x="670" 
d="M354 442c153 0 243 -96 243 -221c0 -140 -105 -234 -258 -234c-150 0 -250 86 -265 215h159c13 -47 49 -76 109 -76c59 0 101 37 101 94c0 55 -44 91 -113 91h-221v369h456v-144h-304l-1 -94h94z" />
    <glyph glyph-name="six.tf" horiz-adv-x="670" 
d="M350 477c151 -8 253 -110 253 -240c0 -142 -112 -250 -275 -250c-164 0 -274 110 -274 247c0 56 23 108 58 165l177 281h191zM328 122c69 0 116 52 116 109s-46 110 -116 110c-30 0 -59 -8 -80 -23l-4 -7c-24 -34 -33 -56 -33 -81c0 -56 48 -108 117 -108z" />
    <glyph glyph-name="seven.tf" horiz-adv-x="670" 
d="M94 680h496v-95l-261 -585h-184l240 529h-291v151z" />
    <glyph glyph-name="eight.tf" horiz-adv-x="670" 
d="M499 361c69 -34 109 -92 109 -164c0 -128 -102 -210 -275 -210c-172 0 -275 82 -275 210c0 72 40 130 109 164c-51 30 -81 78 -81 138c0 116 103 194 247 194s246 -78 246 -194c0 -60 -30 -107 -80 -138zM333 571c-55 0 -93 -34 -93 -82c0 -47 38 -84 93 -84s94 38 94 84
c0 47 -39 82 -94 82zM333 119c59 0 103 39 103 89s-44 88 -103 88s-102 -37 -102 -88s43 -89 102 -89z" />
    <glyph glyph-name="nine.tf" horiz-adv-x="670" 
d="M338 693c164 0 274 -110 274 -247c0 -56 -23 -108 -58 -165l-177 -281h-191l130 203c-151 8 -253 110 -253 240c0 142 112 250 275 250zM418 362l4 7c24 34 33 56 33 81c0 56 -48 108 -117 108s-116 -52 -116 -109s46 -110 116 -110c30 0 59 8 80 23z" />
    <glyph glyph-name="zero.zero" horiz-adv-x="718" 
d="M359 693c196 0 315 -147 315 -353s-119 -353 -315 -353s-315 147 -315 353s119 353 315 353zM359 546c-101 0 -155 -88 -155 -206c0 -38 5 -72 16 -102l203 294c-18 9 -40 14 -64 14zM359 134c101 0 155 88 155 206c0 39 -6 76 -18 106l-205 -296c20 -10 42 -16 68 -16z
" />
    <glyph glyph-name="uni2080" unicode="&#x2080;" horiz-adv-x="455" 
d="M227 244c127 0 203 -92 203 -217c0 -124 -76 -216 -203 -216c-125 0 -202 92 -202 216c0 125 77 217 202 217zM227 -85c59 0 88 50 88 112s-29 113 -88 113c-58 0 -87 -51 -87 -113s29 -112 87 -112z" />
    <glyph glyph-name="uni2081" unicode="&#x2081;" horiz-adv-x="341" 
d="M238 -83h98v-97h-311v97h102v192l-97 -27v103l141 46h67v-314z" />
    <glyph glyph-name="uni2082" unicode="&#x2082;" horiz-adv-x="373" 
d="M208 -83h137v-97h-311v57l143 156c33 35 47 53 47 73c0 21 -16 34 -38 34c-30 0 -46 -17 -47 -45h-107c1 85 57 145 156 145c100 0 149 -58 149 -126c0 -38 -13 -73 -75 -138z" />
    <glyph glyph-name="uni2083" unicode="&#x2083;" horiz-adv-x="384" 
d="M295 26c33 -16 56 -44 56 -89c0 -71 -59 -127 -156 -127s-155 53 -166 136h112c6 -22 20 -39 53 -39c29 0 47 15 47 36c0 25 -19 36 -57 36h-33v88h33c31 0 50 15 50 37c0 21 -14 36 -42 36c-26 0 -40 -18 -42 -40h-112c5 84 63 136 156 136c91 0 147 -52 147 -125
c0 -41 -18 -69 -46 -85z" />
    <glyph glyph-name="uni2084" unicode="&#x2084;" horiz-adv-x="420" 
d="M394 -12v-100h-48v-68h-114v68h-209v75l110 268h116l-92 -243h75v93h114v-93h48z" />
    <glyph glyph-name="uni2085" unicode="&#x2085;" horiz-adv-x="397" 
d="M209 89c100 0 150 -56 150 -134c0 -85 -65 -144 -162 -144c-94 0 -157 52 -165 132h113c7 -22 22 -36 53 -36s52 19 52 45c0 27 -17 46 -54 46h-143v233h287v-99h-184l-1 -43h54z" />
    <glyph glyph-name="uni2086" unicode="&#x2086;" horiz-adv-x="396" 
d="M224 111c91 -10 145 -71 145 -146c0 -85 -68 -154 -171 -154c-102 0 -171 70 -171 151c0 36 14 68 38 105l100 164h135zM198 -94c34 0 59 24 59 55c0 34 -25 56 -59 56c-19 0 -32 -5 -43 -15c-8 -12 -16 -28 -16 -40c0 -31 23 -56 59 -56z" />
    <glyph glyph-name="uni2087" unicode="&#x2087;" horiz-adv-x="347" 
d="M17 231h313v-67l-155 -344h-131l140 304h-167v107z" />
    <glyph glyph-name="uni2088" unicode="&#x2088;" horiz-adv-x="408" 
d="M315 38c39 -22 62 -56 62 -98c0 -77 -63 -129 -173 -129c-109 0 -172 52 -172 129c0 42 22 76 61 98c-28 18 -45 46 -45 81c0 73 65 121 156 121s156 -48 156 -121c0 -35 -17 -63 -45 -81zM204 154c-26 0 -46 -17 -46 -42c0 -26 20 -43 46 -43s46 17 46 43
c0 25 -20 42 -46 42zM204 -96c30 0 50 18 50 44s-20 44 -50 44c-29 0 -49 -18 -49 -44s20 -44 49 -44z" />
    <glyph glyph-name="uni2089" unicode="&#x2089;" horiz-adv-x="396" 
d="M198 241c102 0 171 -70 171 -151c0 -36 -14 -68 -38 -105l-100 -164h-135l76 120c-91 10 -145 71 -145 146c0 85 68 154 171 154zM198 35c19 0 32 5 43 15c8 12 16 28 16 40c0 31 -23 56 -59 56c-34 0 -59 -24 -59 -55c0 -34 25 -56 59 -56z" />
    <glyph glyph-name="zero.dnom" horiz-adv-x="455" 
d="M227 424c127 0 203 -92 203 -217c0 -124 -76 -216 -203 -216c-125 0 -202 92 -202 216c0 125 77 217 202 217zM227 95c59 0 88 50 88 112s-29 113 -88 113c-58 0 -87 -51 -87 -113s29 -112 87 -112z" />
    <glyph glyph-name="one.dnom" horiz-adv-x="341" 
d="M238 97h98v-97h-311v97h102v192l-97 -27v103l141 46h67v-314z" />
    <glyph glyph-name="two.dnom" horiz-adv-x="373" 
d="M208 97h137v-97h-311v57l143 156c33 35 47 53 47 73c0 21 -16 34 -38 34c-30 0 -46 -17 -47 -45h-107c1 85 57 145 156 145c100 0 149 -58 149 -126c0 -38 -13 -73 -75 -138z" />
    <glyph glyph-name="three.dnom" horiz-adv-x="384" 
d="M295 206c33 -16 56 -44 56 -89c0 -71 -59 -127 -156 -127s-155 53 -166 136h112c6 -22 20 -39 53 -39c29 0 47 15 47 36c0 25 -19 36 -57 36h-33v88h33c31 0 50 15 50 37c0 21 -14 36 -42 36c-26 0 -40 -18 -42 -40h-112c5 84 63 136 156 136c91 0 147 -52 147 -125
c0 -41 -18 -69 -46 -85z" />
    <glyph glyph-name="four.dnom" horiz-adv-x="420" 
d="M394 168v-100h-48v-68h-114v68h-209v75l110 268h116l-92 -243h75v93h114v-93h48z" />
    <glyph glyph-name="five.dnom" horiz-adv-x="397" 
d="M209 269c100 0 150 -56 150 -134c0 -85 -65 -144 -162 -144c-94 0 -157 52 -165 132h113c7 -22 22 -36 53 -36s52 19 52 45c0 27 -17 46 -54 46h-143v233h287v-99h-184l-1 -43h54z" />
    <glyph glyph-name="six.dnom" horiz-adv-x="396" 
d="M224 291c91 -10 145 -71 145 -146c0 -85 -68 -154 -171 -154c-102 0 -171 70 -171 151c0 36 14 68 38 105l100 164h135zM198 86c34 0 59 24 59 55c0 34 -25 56 -59 56c-19 0 -32 -5 -43 -15c-8 -12 -16 -28 -16 -40c0 -31 23 -56 59 -56z" />
    <glyph glyph-name="seven.dnom" horiz-adv-x="347" 
d="M17 411h313v-67l-155 -344h-131l140 304h-167v107z" />
    <glyph glyph-name="eight.dnom" horiz-adv-x="408" 
d="M315 218c39 -22 62 -56 62 -98c0 -77 -63 -129 -173 -129c-109 0 -172 52 -172 129c0 42 22 76 61 98c-28 18 -45 46 -45 81c0 73 65 121 156 121s156 -48 156 -121c0 -35 -17 -63 -45 -81zM204 334c-26 0 -46 -17 -46 -42c0 -26 20 -43 46 -43s46 17 46 43
c0 25 -20 42 -46 42zM204 84c30 0 50 18 50 44s-20 44 -50 44c-29 0 -49 -18 -49 -44s20 -44 49 -44z" />
    <glyph glyph-name="nine.dnom" horiz-adv-x="396" 
d="M198 421c102 0 171 -70 171 -151c0 -36 -14 -68 -38 -105l-100 -164h-135l76 120c-91 10 -145 71 -145 146c0 85 68 154 171 154zM198 215c19 0 32 5 43 15c8 12 16 28 16 40c0 31 -23 56 -59 56c-34 0 -59 -24 -59 -55c0 -34 25 -56 59 -56z" />
    <glyph glyph-name="zero.numr" horiz-adv-x="455" 
d="M227 693c127 0 203 -92 203 -217c0 -124 -76 -216 -203 -216c-125 0 -202 92 -202 216c0 125 77 217 202 217zM227 364c59 0 88 50 88 112s-29 113 -88 113c-58 0 -87 -51 -87 -113s29 -112 87 -112z" />
    <glyph glyph-name="one.numr" horiz-adv-x="341" 
d="M238 366h98v-97h-311v97h102v192l-97 -27v103l141 46h67v-314z" />
    <glyph glyph-name="two.numr" horiz-adv-x="373" 
d="M208 366h137v-97h-311v57l143 156c33 35 47 53 47 73c0 21 -16 34 -38 34c-30 0 -46 -17 -47 -45h-107c1 85 57 145 156 145c100 0 149 -58 149 -126c0 -38 -13 -73 -75 -138z" />
    <glyph glyph-name="three.numr" horiz-adv-x="384" 
d="M295 479c33 -16 56 -44 56 -89c0 -71 -59 -127 -156 -127s-155 53 -166 136h112c6 -22 20 -39 53 -39c29 0 47 15 47 36c0 25 -19 36 -57 36h-33v88h33c31 0 50 15 50 37c0 21 -14 36 -42 36c-26 0 -40 -18 -42 -40h-112c5 84 63 136 156 136c91 0 147 -52 147 -125
c0 -41 -18 -69 -46 -85z" />
    <glyph glyph-name="four.numr" horiz-adv-x="420" 
d="M394 437v-100h-48v-68h-114v68h-209v75l110 268h116l-92 -243h75v93h114v-93h48z" />
    <glyph glyph-name="five.numr" horiz-adv-x="397" 
d="M209 538c100 0 150 -56 150 -134c0 -85 -65 -144 -162 -144c-94 0 -157 52 -165 132h113c7 -22 22 -36 53 -36s52 19 52 45c0 27 -17 46 -54 46h-143v233h287v-99h-184l-1 -43h54z" />
    <glyph glyph-name="six.numr" horiz-adv-x="396" 
d="M224 560c91 -10 145 -71 145 -146c0 -85 -68 -154 -171 -154c-102 0 -171 70 -171 151c0 36 14 68 38 105l100 164h135zM198 355c34 0 59 24 59 55c0 34 -25 56 -59 56c-19 0 -32 -5 -43 -15c-8 -12 -16 -28 -16 -40c0 -31 23 -56 59 -56z" />
    <glyph glyph-name="seven.numr" horiz-adv-x="347" 
d="M17 680h313v-67l-155 -344h-131l140 304h-167v107z" />
    <glyph glyph-name="eight.numr" horiz-adv-x="408" 
d="M315 491c39 -22 62 -56 62 -98c0 -77 -63 -129 -173 -129c-109 0 -172 52 -172 129c0 42 22 76 61 98c-28 18 -45 46 -45 81c0 73 65 121 156 121s156 -48 156 -121c0 -35 -17 -63 -45 -81zM204 607c-26 0 -46 -17 -46 -42c0 -26 20 -43 46 -43s46 17 46 43
c0 25 -20 42 -46 42zM204 357c30 0 50 18 50 44s-20 44 -50 44c-29 0 -49 -18 -49 -44s20 -44 49 -44z" />
    <glyph glyph-name="nine.numr" horiz-adv-x="396" 
d="M198 694c102 0 171 -70 171 -151c0 -36 -14 -68 -38 -105l-100 -164h-135l76 120c-91 10 -145 71 -145 146c0 85 68 154 171 154zM198 488c19 0 32 5 43 15c8 12 16 28 16 40c0 31 -23 56 -59 56c-34 0 -59 -24 -59 -55c0 -34 25 -56 59 -56z" />
    <glyph glyph-name="uni2070" unicode="&#x2070;" horiz-adv-x="455" 
d="M227 702c127 0 203 -92 203 -217c0 -124 -76 -216 -203 -216c-125 0 -202 92 -202 216c0 125 77 217 202 217zM227 373c59 0 88 50 88 112s-29 113 -88 113c-58 0 -87 -51 -87 -113s29 -112 87 -112z" />
    <glyph glyph-name="uni00B9" unicode="&#xb9;" horiz-adv-x="341" 
d="M238 378h98v-97h-311v97h102v192l-97 -27v103l141 46h67v-314z" />
    <glyph glyph-name="uni00B2" unicode="&#xb2;" horiz-adv-x="373" 
d="M208 375h137v-97h-311v57l143 156c33 35 47 53 47 73c0 21 -16 34 -38 34c-30 0 -46 -17 -47 -45h-107c1 85 57 145 156 145c100 0 149 -58 149 -126c0 -38 -13 -73 -75 -138z" />
    <glyph glyph-name="uni00B3" unicode="&#xb3;" horiz-adv-x="384" 
d="M295 487c33 -16 56 -44 56 -89c0 -71 -59 -127 -156 -127s-155 53 -166 136h112c6 -22 20 -39 53 -39c29 0 47 15 47 36c0 25 -19 36 -57 36h-33v88h33c31 0 50 15 50 37c0 21 -14 36 -42 36c-26 0 -40 -18 -42 -40h-112c5 84 63 136 156 136c91 0 147 -52 147 -125
c0 -41 -18 -69 -46 -85z" />
    <glyph glyph-name="uni2074" unicode="&#x2074;" horiz-adv-x="420" 
d="M394 449v-100h-48v-68h-114v68h-209v75l110 268h116l-92 -243h75v93h114v-93h48z" />
    <glyph glyph-name="uni2075" unicode="&#x2075;" horiz-adv-x="397" 
d="M209 550c100 0 150 -56 150 -134c0 -85 -65 -144 -162 -144c-94 0 -157 52 -165 132h113c7 -22 22 -36 53 -36s52 19 52 45c0 27 -17 46 -54 46h-143v233h287v-99h-184l-1 -43h54z" />
    <glyph glyph-name="uni2076" unicode="&#x2076;" horiz-adv-x="396" 
d="M224 572c91 -10 145 -71 145 -146c0 -85 -68 -154 -171 -154c-102 0 -171 70 -171 151c0 36 14 68 38 105l100 164h135zM198 367c34 0 59 24 59 55c0 34 -25 56 -59 56c-19 0 -32 -5 -43 -15c-8 -12 -16 -28 -16 -40c0 -31 23 -56 59 -56z" />
    <glyph glyph-name="uni2077" unicode="&#x2077;" horiz-adv-x="347" 
d="M17 692h313v-67l-155 -344h-131l140 304h-167v107z" />
    <glyph glyph-name="uni2078" unicode="&#x2078;" horiz-adv-x="408" 
d="M315 496c39 -22 62 -56 62 -98c0 -77 -63 -129 -173 -129c-109 0 -172 52 -172 129c0 42 22 76 61 98c-28 18 -45 46 -45 81c0 73 65 121 156 121s156 -48 156 -121c0 -35 -17 -63 -45 -81zM204 612c-26 0 -46 -17 -46 -42c0 -26 20 -43 46 -43s46 17 46 43
c0 25 -20 42 -46 42zM204 362c30 0 50 18 50 44s-20 44 -50 44c-29 0 -49 -18 -49 -44s20 -44 49 -44z" />
    <glyph glyph-name="uni2079" unicode="&#x2079;" horiz-adv-x="396" 
d="M198 699c102 0 171 -70 171 -151c0 -36 -14 -68 -38 -105l-100 -164h-135l76 120c-91 10 -145 71 -145 146c0 85 68 154 171 154zM198 493c19 0 32 5 43 15c8 12 16 28 16 40c0 31 -23 56 -59 56c-34 0 -59 -24 -59 -55c0 -34 25 -56 59 -56z" />
    <glyph glyph-name="fraction" unicode="&#x2044;" horiz-adv-x="533" 
d="M548 680l-454 -680h-109l454 680h109z" />
    <glyph glyph-name="onehalf" unicode="&#xbd;" horiz-adv-x="933" 
d="M336 269h-311v97h102v192l-97 -27v103l141 46h67v-314h98v-97zM658 680h109l-454 -680h-109zM768 97h137v-97h-311v57l143 156c33 35 47 53 47 73c0 21 -16 34 -38 34c-30 0 -46 -17 -47 -45h-107c1 85 57 145 156 145c100 0 149 -58 149 -126c0 -38 -13 -73 -75 -138z
" />
    <glyph glyph-name="onequarter" unicode="&#xbc;" horiz-adv-x="953" 
d="M336 269h-311v97h102v192l-97 -27v103l141 46h67v-314h98v-97zM654 680h109l-454 -680h-109zM926 168v-100h-48v-68h-114v68h-209v75l110 268h116l-92 -243h75v93h114v-93h48z" />
    <glyph glyph-name="threequarters" unicode="&#xbe;" horiz-adv-x="915" 
d="M351 390c0 -71 -59 -127 -156 -127s-155 53 -166 136h112c6 -22 20 -39 53 -39c29 0 47 15 47 36c0 25 -19 36 -57 36h-33v88h33c31 0 50 15 50 37c0 21 -14 36 -42 36c-26 0 -40 -18 -42 -40h-112c5 84 63 136 156 136c91 0 147 -52 147 -125c0 -41 -18 -69 -46 -85
c33 -16 56 -44 56 -89zM633 680h109l-454 -680h-109zM888 168v-100h-48v-68h-114v68h-209v75l110 268h116l-92 -243h75v93h114v-93h48z" />
    <glyph glyph-name="oneeighth" unicode="&#x215b;" horiz-adv-x="955" 
d="M336 269h-311v97h102v192l-97 -27v103l141 46h67v-314h98v-97zM658 680h109l-454 -680h-109zM862 218c39 -22 62 -56 62 -98c0 -77 -63 -129 -173 -129c-109 0 -172 52 -172 129c0 42 22 76 61 98c-28 18 -45 46 -45 81c0 73 65 121 156 121s156 -48 156 -121
c0 -35 -17 -63 -45 -81zM751 334c-26 0 -46 -17 -46 -42c0 -26 20 -43 46 -43s46 17 46 43c0 25 -20 42 -46 42zM751 84c30 0 50 18 50 44s-20 44 -50 44c-29 0 -49 -18 -49 -44s20 -44 49 -44z" />
    <glyph glyph-name="threeeighths" unicode="&#x215c;" horiz-adv-x="942" 
d="M351 390c0 -71 -59 -127 -156 -127s-155 53 -166 136h112c6 -22 20 -39 53 -39c29 0 47 15 47 36c0 25 -19 36 -57 36h-33v88h33c31 0 50 15 50 37c0 21 -14 36 -42 36c-26 0 -40 -18 -42 -40h-112c5 84 63 136 156 136c91 0 147 -52 147 -125c0 -41 -18 -69 -46 -85
c33 -16 56 -44 56 -89zM640 680h109l-454 -680h-109zM848 218c39 -22 62 -56 62 -98c0 -77 -63 -129 -173 -129c-109 0 -172 52 -172 129c0 42 22 76 61 98c-28 18 -45 46 -45 81c0 73 65 121 156 121s156 -48 156 -121c0 -35 -17 -63 -45 -81zM737 334
c-26 0 -46 -17 -46 -42c0 -26 20 -43 46 -43s46 17 46 43c0 25 -20 42 -46 42zM737 84c30 0 50 18 50 44s-20 44 -50 44c-29 0 -49 -18 -49 -44s20 -44 49 -44z" />
    <glyph glyph-name="fiveeighths" unicode="&#x215d;" horiz-adv-x="939" 
d="M359 404c0 -85 -65 -144 -162 -144c-94 0 -157 52 -165 132h113c7 -22 22 -36 53 -36s52 19 52 45c0 27 -17 46 -54 46h-143v233h287v-99h-184l-1 -43h54c100 0 150 -56 150 -134zM641 680h109l-454 -680h-109zM846 218c39 -22 62 -56 62 -98c0 -77 -63 -129 -173 -129
c-109 0 -172 52 -172 129c0 42 22 76 61 98c-28 18 -45 46 -45 81c0 73 65 121 156 121s156 -48 156 -121c0 -35 -17 -63 -45 -81zM735 334c-26 0 -46 -17 -46 -42c0 -26 20 -43 46 -43s46 17 46 43c0 25 -20 42 -46 42zM735 84c30 0 50 18 50 44s-20 44 -50 44
c-29 0 -49 -18 -49 -44s20 -44 49 -44z" />
    <glyph glyph-name="seveneighths" unicode="&#x215e;" horiz-adv-x="864" 
d="M175 269h-131l140 304h-167v107h313v-67zM544 680h109l-454 -680h-109zM770 218c39 -22 62 -56 62 -98c0 -77 -63 -129 -173 -129c-109 0 -172 52 -172 129c0 42 22 76 61 98c-28 18 -45 46 -45 81c0 73 65 121 156 121s156 -48 156 -121c0 -35 -17 -63 -45 -81zM659 334
c-26 0 -46 -17 -46 -42c0 -26 20 -43 46 -43s46 17 46 43c0 25 -20 42 -46 42zM659 84c30 0 50 18 50 44s-20 44 -50 44c-29 0 -49 -18 -49 -44s20 -44 49 -44z" />
    <glyph glyph-name="asterisk" unicode="*" horiz-adv-x="412" 
d="M288 525l91 -55l-42 -72l-89 53v-96h-84v96l-89 -53l-42 72l91 55l-91 55l42 73l89 -54v94h84v-94l89 54l42 -73z" />
    <glyph glyph-name="backslash" unicode="\" horiz-adv-x="431" 
d="M12 730h155l252 -890h-155z" />
    <glyph glyph-name="periodcentered" unicode="&#xb7;" horiz-adv-x="235" 
d="M117 198c-49 0 -90 37 -90 88c0 49 41 86 90 86c50 0 92 -37 92 -86c0 -51 -42 -88 -92 -88z" />
    <glyph glyph-name="bullet" unicode="&#x2022;" horiz-adv-x="358" 
d="M178 146c-81 0 -151 70 -151 151s70 151 151 151c82 0 153 -70 153 -151s-71 -151 -153 -151z" />
    <glyph glyph-name="colon" unicode=":" horiz-adv-x="235" 
d="M117 318c-49 0 -90 37 -90 88c0 49 41 86 90 86c50 0 92 -37 92 -86c0 -51 -42 -88 -92 -88zM117 -8c-49 0 -90 37 -90 88c0 49 41 86 90 86c50 0 92 -37 92 -86c0 -51 -42 -88 -92 -88z" />
    <glyph glyph-name="comma" unicode="," horiz-adv-x="234" 
d="M27 -104l52 111c-35 15 -52 41 -52 72c0 48 40 86 90 86s90 -38 90 -86c0 -22 -1 -34 -30 -83l-60 -100h-90z" />
    <glyph glyph-name="ellipsis" unicode="&#x2026;" horiz-adv-x="739" 
d="M117 -8c-49 0 -90 37 -90 88c0 49 41 86 90 86c50 0 92 -37 92 -86c0 -51 -42 -88 -92 -88zM367 -8c-49 0 -90 37 -90 88c0 49 41 86 90 86c50 0 92 -37 92 -86c0 -51 -42 -88 -92 -88zM620 -8c-49 0 -90 37 -90 88c0 49 41 86 90 86c50 0 92 -37 92 -86
c0 -51 -42 -88 -92 -88z" />
    <glyph glyph-name="exclam" unicode="!" horiz-adv-x="295" 
d="M232 680l-14 -458h-142l-14 458h170zM147 -7c-48 0 -87 36 -87 85c0 47 39 83 87 83s88 -36 88 -83c0 -49 -40 -85 -88 -85z" />
    <glyph glyph-name="exclamdown" unicode="&#xa1;" horiz-adv-x="295" 
d="M147 495c48 0 88 -36 88 -85c0 -47 -40 -83 -88 -83s-87 36 -87 83c0 49 39 85 87 85zM232 -192h-170l14 458h142z" />
    <glyph glyph-name="numbersign" unicode="#" horiz-adv-x="793" 
d="M634 382l-31 -100h109v-136h-152l-46 -146h-156l46 146h-136l-45 -146h-156l45 146h-85v136h128l31 100h-104v136h147l51 163h156l-51 -163h135l51 163h156l-51 -163h91v-136h-133zM478 382h-136l-31 -100h136z" />
    <glyph glyph-name="period" unicode="." horiz-adv-x="235" 
d="M117 -8c-49 0 -90 37 -90 88c0 49 41 86 90 86c50 0 92 -37 92 -86c0 -51 -42 -88 -92 -88z" />
    <glyph glyph-name="question" unicode="?" horiz-adv-x="539" 
d="M306 219h-123l-10 163h82c56 0 99 32 99 87c0 51 -35 85 -88 85s-88 -31 -92 -79h-157c8 129 92 217 244 217c140 0 243 -91 243 -223c0 -106 -75 -176 -193 -192zM240 -7c-47 0 -87 36 -87 85c0 47 40 83 87 83c48 0 88 -36 88 -83c0 -49 -40 -85 -88 -85z" />
    <glyph glyph-name="questiondown" unicode="&#xbf;" horiz-adv-x="539" 
d="M299 548c47 0 87 -36 87 -85c0 -47 -40 -83 -87 -83c-48 0 -88 36 -88 83c0 49 40 85 88 85zM233 322h123l10 -163h-82c-56 0 -99 -32 -99 -87c0 -51 35 -85 88 -85s88 31 92 79h157c-8 -129 -92 -217 -244 -217c-140 0 -243 91 -243 223c0 106 75 176 193 192z" />
    <glyph glyph-name="quotedbl" unicode="&#x22;" horiz-adv-x="402" 
d="M32 727h131v-296h-131v296zM239 727h131v-296h-131v296z" />
    <glyph glyph-name="quotesingle" unicode="'" horiz-adv-x="194" 
d="M32 727h131v-296h-131v296z" />
    <glyph glyph-name="semicolon" unicode=";" horiz-adv-x="235" 
d="M117 318c-49 0 -90 37 -90 88c0 49 41 86 90 86c50 0 92 -37 92 -86c0 -51 -42 -88 -92 -88zM28 -104l52 111c-35 15 -52 41 -52 72c0 48 40 86 90 86s90 -38 90 -86c0 -22 -1 -34 -30 -83l-60 -100h-90z" />
    <glyph glyph-name="slash" unicode="/" horiz-adv-x="431" 
d="M439 730l-252 -890h-155l252 890h155z" />
    <glyph glyph-name="underscore" unicode="_" horiz-adv-x="621" 
d="M27 -228v137h568v-137h-568z" />
    <glyph glyph-name="backslash.case" horiz-adv-x="405" 
d="M232 -47l-220 777h162l220 -777h-162z" />
    <glyph glyph-name="periodcentered.case" horiz-adv-x="235" 
d="M117 253c-49 0 -90 37 -90 88c0 49 41 86 90 86c50 0 92 -37 92 -86c0 -51 -42 -88 -92 -88z" />
    <glyph glyph-name="bullet.case" horiz-adv-x="358" 
d="M178 181c-81 0 -151 70 -151 151s70 151 151 151c82 0 153 -70 153 -151s-71 -151 -153 -151z" />
    <glyph glyph-name="exclamdown.case" horiz-adv-x="295" 
d="M147 687c48 0 88 -36 88 -85c0 -47 -40 -83 -88 -83s-87 36 -87 83c0 49 39 85 87 85zM232 0h-170l14 458h142z" />
    <glyph glyph-name="questiondown.case" horiz-adv-x="539" 
d="M299 687c47 0 87 -36 87 -85c0 -47 -40 -83 -87 -83c-48 0 -88 36 -88 83c0 49 40 85 88 85zM233 461h123l10 -163h-82c-56 0 -99 -32 -99 -87c0 -51 35 -85 88 -85s88 31 92 79h157c-8 -129 -92 -217 -244 -217c-140 0 -243 91 -243 223c0 106 75 176 193 192z" />
    <glyph glyph-name="slash.case" horiz-adv-x="405" 
d="M173 -47h-162l220 777h162z" />
    <glyph glyph-name="braceleft" unicode="{" horiz-adv-x="368" 
d="M268 421c0 -67 -9 -107 -77 -128c68 -21 77 -58 77 -125v-117c0 -31 29 -53 73 -53v-151c-141 0 -235 74 -235 194v132c0 54 -21 56 -79 56v128c58 0 79 2 79 56v135c0 120 94 194 235 194v-151c-44 0 -73 -22 -73 -53v-117z" />
    <glyph glyph-name="braceright" unicode="}" horiz-adv-x="378" 
d="M110 421v117c0 31 -29 53 -73 53v151c141 0 235 -74 235 -194v-135c0 -54 21 -56 79 -56v-128c-58 0 -79 -2 -79 -56v-132c0 -120 -94 -194 -235 -194v151c44 0 73 22 73 53v117c0 67 9 104 77 125c-68 21 -77 61 -77 128z" />
    <glyph glyph-name="bracketleft" unicode="[" horiz-adv-x="394" 
d="M222 579v-574h146v-152h-308v877h308v-151h-146z" />
    <glyph glyph-name="bracketright" unicode="]" horiz-adv-x="394" 
d="M172 579h-146v151h308v-877h-308v152h146v574z" />
    <glyph glyph-name="parenleft" unicode="(" horiz-adv-x="389" 
d="M369 627c-98 -104 -154 -195 -154 -336c0 -139 56 -229 154 -333l-111 -111c-141 130 -214 277 -214 444c0 169 73 317 214 447z" />
    <glyph glyph-name="parenright" unicode=")" horiz-adv-x="389" 
d="M131 738c141 -130 214 -278 214 -447c0 -167 -73 -314 -214 -444l-111 111c98 104 154 194 154 333c0 141 -56 232 -154 336z" />
    <glyph glyph-name="braceleft.case" horiz-adv-x="368" 
d="M268 447c0 -55 -18 -86 -77 -104c59 -18 77 -50 77 -105v-90c0 -32 29 -53 73 -53v-151c-141 0 -235 74 -235 194v88c0 54 -21 53 -79 53v128c58 0 79 -2 79 53v88c0 120 94 194 235 194v-151c-44 0 -73 -22 -73 -53v-91z" />
    <glyph glyph-name="braceright.case" horiz-adv-x="378" 
d="M110 447v91c0 31 -29 53 -73 53v151c141 0 235 -74 235 -194v-88c0 -55 21 -53 79 -53v-128c-58 0 -79 1 -79 -53v-88c0 -120 -94 -194 -235 -194v151c44 0 73 21 73 53v90c0 55 18 87 77 105c-59 18 -77 49 -77 104z" />
    <glyph glyph-name="bracketleft.case" horiz-adv-x="394" 
d="M222 579v-474h146v-152h-308v777h308v-151h-146z" />
    <glyph glyph-name="bracketright.case" horiz-adv-x="394" 
d="M172 579h-146v151h308v-777h-308v152h146v474z" />
    <glyph glyph-name="parenleft.case" horiz-adv-x="372" 
d="M352 627c-95 -104 -135 -163 -135 -281s40 -177 135 -281l-111 -104c-138 123 -197 233 -197 385s59 262 197 385z" />
    <glyph glyph-name="parenright.case" horiz-adv-x="372" 
d="M131 731c138 -123 197 -233 197 -385s-59 -262 -197 -385l-111 104c95 104 135 163 135 281s-40 177 -135 281z" />
    <glyph glyph-name="emdash" unicode="&#x2014;" horiz-adv-x="1069" 
d="M97 194h875v131h-875v-131z" />
    <glyph glyph-name="endash" unicode="&#x2013;" horiz-adv-x="690" 
d="M97 194h497v131h-497v-131z" />
    <glyph glyph-name="hyphen" unicode="-" horiz-adv-x="554" 
d="M97 187h361v142h-361v-142z" />
    <glyph glyph-name="emdash.case" horiz-adv-x="1069" 
d="M97 264h875v131h-875v-131z" />
    <glyph glyph-name="endash.case" horiz-adv-x="690" 
d="M97 264h497v131h-497v-131z" />
    <glyph glyph-name="hyphen.case" horiz-adv-x="554" 
d="M97 257h361v142h-361v-142z" />
    <glyph glyph-name="guillemotleft" unicode="&#xab;" horiz-adv-x="486" 
d="M117 413h144l-95 -161l95 -161h-144l-95 161zM320 413h144l-95 -161l95 -161h-144l-95 161z" />
    <glyph glyph-name="guillemotright" unicode="&#xbb;" horiz-adv-x="486" 
d="M166 413l95 -161l-95 -161h-144l95 161l-95 161h144zM369 413l95 -161l-95 -161h-144l95 161l-95 161h144z" />
    <glyph glyph-name="guilsinglleft" unicode="&#x2039;" horiz-adv-x="283" 
d="M117 413h144l-95 -161l95 -161h-144l-95 161z" />
    <glyph glyph-name="guilsinglright" unicode="&#x203a;" horiz-adv-x="286" 
d="M169 413l95 -161l-95 -161h-144l95 161l-95 161h144z" />
    <glyph glyph-name="quotedblbase" unicode="&#x201e;" horiz-adv-x="443" 
d="M27 -104l52 111c-35 15 -52 41 -52 72c0 48 40 86 90 86s90 -38 90 -86c0 -22 -1 -34 -30 -83l-60 -100h-90zM236 -104l52 111c-35 15 -52 41 -52 72c0 48 40 86 90 86s90 -38 90 -86c0 -22 -1 -34 -30 -83l-60 -100h-90z" />
    <glyph glyph-name="quotedblleft" unicode="&#x201c;" horiz-adv-x="441" 
d="M207 731l-52 -111c35 -15 52 -41 52 -72c0 -48 -40 -86 -90 -86s-90 38 -90 86c0 22 1 34 30 83l60 100h90zM414 731l-52 -111c35 -15 52 -41 52 -72c0 -48 -40 -86 -90 -86s-90 38 -90 86c0 22 1 34 30 83l60 100h90z" />
    <glyph glyph-name="quotedblright" unicode="&#x201d;" horiz-adv-x="441" 
d="M27 464l52 111c-35 15 -52 41 -52 72c0 48 40 86 90 86s90 -38 90 -86c0 -22 -1 -34 -30 -83l-60 -100h-90zM234 464l52 111c-35 15 -52 41 -52 72c0 48 40 86 90 86s90 -38 90 -86c0 -22 -1 -34 -30 -83l-60 -100h-90z" />
    <glyph glyph-name="quoteleft" unicode="&#x2018;" horiz-adv-x="234" 
d="M207 728l-52 -111c35 -15 52 -41 52 -72c0 -48 -40 -86 -90 -86s-90 38 -90 86c0 22 1 34 30 83l60 100h90z" />
    <glyph glyph-name="quoteright" unicode="&#x2019;" horiz-adv-x="234" 
d="M27 464l52 111c-35 15 -52 41 -52 72c0 48 40 86 90 86s90 -38 90 -86c0 -22 -1 -34 -30 -83l-60 -100h-90z" />
    <glyph glyph-name="quotesinglbase" unicode="&#x201a;" horiz-adv-x="234" 
d="M27 -104l52 111c-35 15 -52 41 -52 72c0 48 40 86 90 86s90 -38 90 -86c0 -22 -1 -34 -30 -83l-60 -100h-90z" />
    <glyph glyph-name="guillemotleft.case" horiz-adv-x="486" 
d="M117 490h144l-95 -161l95 -161h-144l-95 161zM320 490h144l-95 -161l95 -161h-144l-95 161z" />
    <glyph glyph-name="guillemotright.case" horiz-adv-x="486" 
d="M166 490l95 -161l-95 -161h-144l95 161l-95 161h144zM369 490l95 -161l-95 -161h-144l95 161l-95 161h144z" />
    <glyph glyph-name="guilsinglleft.case" horiz-adv-x="283" 
d="M117 490h144l-95 -161l95 -161h-144l-95 161z" />
    <glyph glyph-name="guilsinglright.case" horiz-adv-x="283" 
d="M166 490l95 -161l-95 -161h-144l95 161l-95 161h144z" />
    <glyph glyph-name="space" unicode=" " horiz-adv-x="257" 
 />
    <glyph glyph-name="cent" unicode="&#xa2;" horiz-adv-x="580" 
d="M299 124c49 0 87 31 95 75h153c-10 -103 -82 -180 -182 -204v-99h-131v98c-119 25 -201 123 -201 249c0 125 82 223 201 248v115h131v-116c100 -24 172 -101 182 -204h-153c-8 44 -46 75 -95 75c-70 0 -111 -52 -111 -118s41 -119 111 -119z" />
    <glyph glyph-name="dollar" unicode="$" horiz-adv-x="676" 
d="M629 207c0 -117 -83 -195 -214 -215v-102h-131v101c-126 18 -230 92 -244 237h170c11 -60 62 -98 142 -98c60 0 96 23 96 61c0 24 -13 49 -72 60l-112 24c-134 29 -197 90 -197 198c0 120 86 200 217 217v109h131v-113c97 -18 200 -74 213 -217h-170
c-9 51 -40 86 -112 86c-60 0 -99 -23 -99 -67c0 -39 28 -56 82 -67l95 -20c125 -26 205 -77 205 -194z" />
    <glyph glyph-name="Euro" unicode="&#x20ac;" horiz-adv-x="847" 
d="M461 145c90 0 150 52 168 137h174c-22 -176 -156 -295 -341 -295c-161 0 -292 92 -340 231h-87v89h68c-1 11 -1 22 -1 33v18h-67v89h82c44 148 178 246 345 246c185 0 319 -119 341 -295h-174c-18 85 -78 137 -168 137c-71 0 -129 -34 -160 -88h228l-23 -89h-232
c-1 -6 -1 -12 -1 -18c0 -11 1 -22 2 -33h219l-23 -89h-161c34 -45 87 -73 151 -73z" />
    <glyph glyph-name="florin" unicode="&#x192;" horiz-adv-x="591" 
d="M463 538c-50 0 -77 -32 -84 -80l-10 -73h154v-129h-172l-21 -151c-19 -141 -92 -228 -216 -228c-39 0 -80 6 -129 19l22 138c23 -5 52 -9 74 -9c51 0 78 31 84 79l21 152h-122v129h140l10 73c20 140 92 227 216 227c39 0 80 -5 129 -18l-21 -138c-24 5 -53 9 -75 9z" />
    <glyph glyph-name="sterling" unicode="&#xa3;" horiz-adv-x="617" 
d="M245 269v-130h334v-139h-551v139h56v130h-56v126h56v58c0 146 102 240 255 240c143 0 242 -82 254 -215h-162c-9 49 -43 74 -92 74c-57 0 -94 -37 -94 -99v-58h182v-126h-182z" />
    <glyph glyph-name="uni20B9" unicode="&#x20b9;" horiz-adv-x="593" 
d="M533 552h-126c7 -14 13 -29 18 -45h108v-128h-108c-21 -78 -81 -133 -166 -157l246 -222h-234l-211 197v152h99c65 0 105 36 105 92c0 55 -40 90 -105 90h-99v149h473v-128z" />
    <glyph glyph-name="yen" unicode="&#xa5;" horiz-adv-x="719" 
d="M713 680l-204 -362h114v-105h-173l-5 -8v-34h178v-105h-178v-66h-170v66h-179v105h179v34l-5 8h-174v105h115l-205 362h187l166 -296l167 296h187z" />
    <glyph glyph-name="cent.tf" horiz-adv-x="670" 
d="M343 124c49 0 87 31 95 75h153c-10 -103 -82 -180 -182 -204v-99h-131v98c-119 25 -201 123 -201 249c0 125 82 223 201 248v115h131v-116c100 -24 172 -101 182 -204h-153c-8 44 -46 75 -95 75c-70 0 -111 -52 -111 -118s41 -119 111 -119z" />
    <glyph glyph-name="dollar.tf" horiz-adv-x="670" 
d="M623 207c0 -117 -83 -195 -214 -215v-102h-131v101c-126 18 -230 92 -244 237h170c11 -60 62 -98 142 -98c60 0 96 23 96 61c0 24 -13 49 -72 60l-112 24c-134 29 -197 90 -197 198c0 120 86 200 217 217v109h131v-113c97 -18 200 -74 213 -217h-170
c-9 51 -40 86 -112 86c-60 0 -99 -23 -99 -67c0 -39 28 -56 82 -67l95 -20c125 -26 205 -77 205 -194z" />
    <glyph glyph-name="Euro.tf" horiz-adv-x="670" 
d="M373 134c42 0 76 13 91 40h180c-33 -116 -133 -187 -271 -187c-155 0 -259 91 -297 231h-56v89h42c-1 11 -1 22 -1 33v18h-41v89h53c33 148 140 246 300 246c143 0 245 -77 276 -200h-174c-16 35 -54 53 -102 53c-67 0 -111 -39 -134 -99h231l-23 -89h-225v-18
c0 -11 0 -22 1 -33h212l-22 -89h-168c24 -52 67 -84 128 -84z" />
    <glyph glyph-name="florin.tf" horiz-adv-x="670" 
d="M531 538c-50 0 -77 -32 -84 -80l-10 -73h154v-129h-172l-21 -151c-19 -141 -92 -228 -216 -228c-39 0 -80 6 -129 19l22 138c23 -5 52 -9 74 -9c51 0 78 31 84 79l21 152h-122v129h140l10 73c20 140 92 227 216 227c39 0 80 -5 129 -18l-21 -138c-24 5 -53 9 -75 9z" />
    <glyph glyph-name="uni20B9.tf" horiz-adv-x="670" 
d="M588 552h-126c7 -14 13 -29 18 -45h108v-128h-108c-21 -78 -81 -133 -166 -157l246 -222h-234l-211 197v152h99c65 0 105 36 105 92c0 55 -40 90 -105 90h-99v149h473v-128z" />
    <glyph glyph-name="sterling.tf" horiz-adv-x="670" 
d="M279 269v-130h334v-139h-551v139h56v130h-56v126h56v58c0 146 102 240 255 240c143 0 242 -82 254 -215h-162c-9 49 -43 74 -92 74c-57 0 -94 -37 -94 -99v-58h182v-126h-182z" />
    <glyph glyph-name="yen.tf" horiz-adv-x="670" 
d="M642 680l-168 -362h125v-105h-174l-4 -8v-34h178v-105h-178v-66h-170v66h-179v105h179v34l-4 8h-175v105h126l-170 362h187l120 -295l120 295h187z" />
    <glyph glyph-name="plus" unicode="+" horiz-adv-x="669" 
d="M573 264h-172v-164h-133v164h-171v128h171v164h133v-164h172v-128z" />
    <glyph glyph-name="minus" unicode="&#x2212;" horiz-adv-x="669" 
d="M97 264v128h475v-128h-475z" />
    <glyph glyph-name="multiply" unicode="&#xd7;" horiz-adv-x="654" 
d="M418 322l139 -139l-91 -91l-139 139l-139 -139l-91 91l139 139l-139 139l91 91l139 -139l139 139l91 -91z" />
    <glyph glyph-name="divide" unicode="&#xf7;" horiz-adv-x="682" 
d="M341 447c-46 0 -84 35 -84 81s38 81 84 81s85 -35 85 -81s-39 -81 -85 -81zM97 264v128h488v-128h-488zM341 52c-46 0 -84 35 -84 81s38 81 84 81s85 -35 85 -81s-39 -81 -85 -81z" />
    <glyph glyph-name="equal" unicode="=" horiz-adv-x="675" 
d="M579 489v-128h-482v128h482zM579 282v-128h-482v128h482z" />
    <glyph glyph-name="greater" unicode="&#x3e;" horiz-adv-x="529" 
d="M485 380v-147l-422 -190v147l258 117l-258 116v147z" />
    <glyph glyph-name="less" unicode="&#x3c;" horiz-adv-x="529" 
d="M44 380l422 190v-147l-258 -116l258 -117v-147l-422 190v147z" />
    <glyph glyph-name="plusminus" unicode="&#xb1;" horiz-adv-x="669" 
d="M572 452v-128h-171v-123h-133v123h-171v128h171v124h133v-124h171zM97 162h475v-128h-475v128z" />
    <glyph glyph-name="asciitilde" unicode="~" horiz-adv-x="473" 
d="M459 418c0 -168 -138 -200 -219 -153l-42 26c-34 20 -46 -3 -46 -28h-137c0 168 136 198 218 152l43 -25c34 -20 45 3 45 28h138z" />
    <glyph glyph-name="percent" unicode="%" horiz-adv-x="1091" 
d="M271 693c116 0 204 -82 204 -200c0 -119 -88 -201 -204 -201c-117 0 -206 82 -206 201c0 118 89 200 206 200zM820 680l-454 -680h-108l454 680h108zM271 398c50 0 94 38 94 95s-44 95 -94 95c-52 0 -95 -38 -95 -95s43 -95 95 -95zM820 388c117 0 205 -82 205 -200
c0 -119 -88 -201 -205 -201c-116 0 -205 82 -205 201c0 118 89 200 205 200zM820 92c51 0 95 38 95 96c0 56 -44 94 -95 94s-94 -38 -94 -94c0 -58 43 -96 94 -96z" />
    <glyph glyph-name="perthousand" unicode="&#x2030;" horiz-adv-x="1554" 
d="M271 693c116 0 204 -82 204 -200c0 -119 -88 -201 -204 -201c-117 0 -206 82 -206 201c0 118 89 200 206 200zM821 680l-454 -680h-109l454 680h109zM271 398c50 0 94 38 94 95s-44 95 -94 95c-52 0 -95 -38 -95 -95s43 -95 95 -95zM820 388c117 0 205 -82 205 -200
c0 -119 -88 -201 -205 -201c-116 0 -205 82 -205 201c0 118 89 200 205 200zM1283 388c117 0 206 -82 206 -200c0 -119 -89 -201 -206 -201c-116 0 -204 82 -204 201c0 118 88 200 204 200zM820 92c51 0 95 38 95 96c0 56 -44 94 -95 94s-94 -38 -94 -94
c0 -58 43 -96 94 -96zM1283 92c52 0 95 38 95 96c0 56 -43 94 -95 94c-50 0 -94 -38 -94 -94c0 -58 44 -96 94 -96z" />
    <glyph glyph-name="arrowup" unicode="&#x2191;" horiz-adv-x="783" 
d="M317 0v423l-173 -177l-99 103l346 343l346 -343l-99 -103l-173 176v-422h-148z" />
    <glyph glyph-name="uni2197" unicode="&#x2197;" horiz-adv-x="796" 
d="M25 102l435 436h-244v142h490v-490h-142v243l-435 -435z" />
    <glyph glyph-name="arrowright" unicode="&#x2192;" horiz-adv-x="766" 
d="M40 267v148h422l-176 173l103 99l343 -346l-343 -346l-103 99l177 173h-423z" />
    <glyph glyph-name="uni2198" unicode="&#x2198;" horiz-adv-x="796" 
d="M25 578l104 104l435 -435v243h142v-490h-490v142h244z" />
    <glyph glyph-name="arrowdown" unicode="&#x2193;" horiz-adv-x="783" 
d="M317 680h148v-422l173 176l99 -103l-346 -343l-346 343l99 103l173 -177v423z" />
    <glyph glyph-name="uni2199" unicode="&#x2199;" horiz-adv-x="796" 
d="M771 578l-435 -436h244v-142h-490v490h142v-243l435 435z" />
    <glyph glyph-name="arrowleft" unicode="&#x2190;" horiz-adv-x="766" 
d="M726 267h-423l177 -173l-103 -99l-343 346l343 346l103 -99l-176 -173h422v-148z" />
    <glyph glyph-name="uni2196" unicode="&#x2196;" horiz-adv-x="796" 
d="M771 102l-104 -104l-435 435v-243h-142v490h490v-142h-244z" />
    <glyph glyph-name="arrowup.ss05" horiz-adv-x="565" 
d="M383 430l95 -95l-275 -275l-95 95l180 180l-182 180l95 95z" />
    <glyph glyph-name="arrowright.ss05" horiz-adv-x="565" 
d="M459 515l-182 -180l180 -180l-95 -95l-275 275l95 95l182 180z" />
    <glyph glyph-name="arrowdown.ss05" horiz-adv-x="704" 
d="M532 491l95 -95l-275 -275l-95 95l-180 182l95 95l180 -182z" />
    <glyph glyph-name="arrowleft.ss05" horiz-adv-x="704" 
d="M627 217l-95 -95l-180 180l-180 -182l-95 95l180 182l95 95z" />
    <glyph glyph-name="at" unicode="@" horiz-adv-x="990" 
d="M575 442h138v-242c0 -48 16 -70 48 -70c54 0 70 60 70 128c0 181 -136 315 -325 315c-193 0 -345 -146 -345 -331c0 -186 151 -331 337 -331c79 0 155 26 214 73l58 -87c-76 -57 -172 -87 -271 -87c-247 0 -446 186 -446 432c0 245 201 431 450 431
c247 0 434 -174 434 -412c0 -132 -52 -233 -183 -233c-75 0 -120 26 -146 65c-36 -38 -85 -63 -147 -63c-112 0 -201 91 -201 211c0 121 89 211 201 211c45 0 83 -13 114 -34v24zM490 145c26 0 60 10 88 46c-2 18 -3 36 -3 54v49c-26 32 -57 44 -85 44
c-47 0 -94 -36 -94 -97s46 -96 94 -96z" />
    <glyph glyph-name="ampersand" unicode="&#x26;" horiz-adv-x="738" 
d="M731 0h-208l-43 41c-55 -37 -120 -56 -197 -56c-157 0 -260 86 -260 214c0 83 48 143 115 179c-28 40 -41 77 -41 119c0 109 88 198 227 198c135 0 218 -84 228 -214h-152c-5 48 -31 76 -71 76c-36 0 -64 -25 -64 -64c0 -41 32 -72 98 -134l113 -110l72 118h165
l-129 -213c-1 -2 -3 -4 -4 -7zM286 121c28 0 57 7 86 21l-108 101c-13 13 -26 24 -38 36c-28 -18 -47 -43 -47 -74c0 -46 47 -84 107 -84z" />
    <glyph glyph-name="paragraph" unicode="&#xb6;" horiz-adv-x="770" 
d="M278 680h436v-840h-146v716h-71v-716h-147v363h-72c-145 0 -258 99 -258 246c0 139 113 231 258 231zM350 556h-72c-71 0 -118 -43 -118 -108c0 -69 47 -115 118 -115h72v223z" />
    <glyph glyph-name="section" unicode="&#xa7;" horiz-adv-x="561" 
d="M534 241c0 -55 -24 -101 -69 -130c20 -29 29 -62 29 -98c0 -107 -90 -175 -215 -175c-132 0 -224 76 -234 200h163c3 -37 25 -64 68 -64c31 0 52 16 52 42c0 22 -15 39 -40 50l-114 50c-109 47 -147 102 -147 172c0 55 25 101 70 129c-20 30 -30 63 -30 99
c0 107 89 174 215 174c132 0 224 -76 234 -199h-163c-3 36 -24 64 -68 64c-31 0 -52 -16 -52 -42c0 -22 13 -38 40 -50l114 -51c108 -47 147 -101 147 -171zM241 241l115 -50c16 7 27 21 27 38c0 24 -22 40 -63 58l-114 50c-17 -5 -28 -20 -28 -38c0 -23 22 -40 63 -58z" />
    <glyph glyph-name="copyright" unicode="&#xa9;" horiz-adv-x="815" 
d="M408 695c198 0 364 -152 364 -355s-166 -355 -364 -355s-364 152 -364 355s166 355 364 355zM407 75c145 0 270 116 270 265s-125 265 -270 265c-144 0 -269 -116 -269 -265s125 -265 269 -265zM409 404c-39 0 -65 -29 -65 -65c0 -35 26 -65 65 -65c27 0 49 16 57 37h106
c-11 -79 -77 -133 -163 -133c-98 0 -168 69 -168 161c0 93 70 162 168 162c86 0 152 -54 163 -134h-106c-8 22 -30 37 -57 37z" />
    <glyph glyph-name="registered" unicode="&#xae;" horiz-adv-x="557" 
d="M278 692c139 0 255 -106 255 -249c0 -142 -116 -248 -255 -248s-255 106 -255 248c0 143 116 249 255 249zM278 265c96 0 180 79 180 178c0 100 -84 179 -180 179s-179 -79 -179 -179c0 -99 83 -178 179 -178zM374 476c0 -28 -14 -47 -35 -59l45 -68h-70l-34 55h-25v-55
h-58v202h90c53 0 87 -29 87 -75zM255 500v-47h31c18 0 28 10 28 24c0 13 -10 23 -28 23h-31z" />
    <glyph glyph-name="uni2117" unicode="&#x2117;" horiz-adv-x="815" 
d="M408 695c198 0 364 -152 364 -355s-166 -355 -364 -355s-364 152 -364 355s166 355 364 355zM407 605c-144 0 -269 -116 -269 -265s125 -265 269 -265c145 0 270 116 270 265s-125 265 -270 265zM433 501c78 0 128 -45 128 -112s-50 -108 -130 -108h-49v-83h-87v303h138z
M429 424h-47v-70h47c26 0 41 14 41 36c0 20 -15 34 -41 34z" />
    <glyph glyph-name="trademark" unicode="&#x2122;" horiz-adv-x="703" 
d="M294 679v-80h-91v-212h-86v212h-90v80h267zM662 679v-292h-86v131l-64 -94v-1h-45v1l-65 95l1 -132h-85v292h64l108 -149l107 149h65z" />
    <glyph glyph-name="degree" unicode="&#xb0;" horiz-adv-x="462" 
d="M231 695c101 0 179 -72 179 -174s-78 -174 -179 -174s-179 72 -179 174s78 174 179 174zM231 451c38 0 71 31 71 70c0 40 -33 70 -71 70s-71 -30 -71 -70c0 -39 33 -70 71 -70z" />
    <glyph glyph-name="bar" unicode="|" horiz-adv-x="330" 
d="M93 730h144v-890h-144v890z" />
    <glyph glyph-name="brokenbar" unicode="&#xa6;" horiz-adv-x="330" 
d="M237 730v-394h-144v394h144zM237 234v-394h-144v394h144z" />
    <glyph glyph-name="dagger" unicode="&#x2020;" horiz-adv-x="403" 
d="M363 509h-112v-212h-99v212h-112v98h112v112h99v-112h112v-98z" />
    <glyph glyph-name="daggerdbl" unicode="&#x2021;" horiz-adv-x="403" 
d="M251 535v-52h112v-98h-112v-88h-99v88h-112v98h112v52h-112v98h112v86h99v-86h112v-98h-112z" />
    <glyph glyph-name="uni2116" unicode="&#x2116;" horiz-adv-x="1369" 
d="M1053 178c-156 0 -267 105 -267 255c0 149 111 256 267 256s266 -107 266 -256c0 -150 -110 -255 -266 -255zM517 297v383h168v-680h-130l-326 373v-373h-169v680h129zM1053 553c-68 0 -115 -50 -115 -120c0 -71 47 -120 115 -120c67 0 114 49 114 120
c0 70 -47 120 -114 120zM808 1v119h482v-119h-482z" />
    <glyph glyph-name="asciicircum" unicode="^" horiz-adv-x="438" 
d="M282 680l139 -245h-141l-61 123l-61 -123h-141l139 245h126z" />
    <glyph glyph-name="at.case" horiz-adv-x="990" 
d="M575 512h138v-242c0 -48 16 -70 48 -70c54 0 70 60 70 128c0 181 -136 315 -325 315c-193 0 -345 -146 -345 -331c0 -186 151 -331 337 -331c79 0 155 26 214 73l58 -87c-76 -57 -172 -87 -271 -87c-247 0 -446 186 -446 432c0 245 201 431 450 431
c247 0 434 -174 434 -412c0 -132 -52 -233 -183 -233c-75 0 -120 26 -146 65c-36 -38 -85 -63 -147 -63c-112 0 -201 91 -201 211c0 121 89 211 201 211c45 0 83 -13 114 -34v24zM490 215c26 0 60 10 88 46c-2 18 -3 36 -3 54v49c-26 32 -57 44 -85 44
c-47 0 -94 -36 -94 -97s46 -96 94 -96z" />
    <glyph glyph-name="bar.case" horiz-adv-x="330" 
d="M93 730h144v-777h-144v777z" />
    <glyph glyph-name="brokenbar.case" horiz-adv-x="330" 
d="M237 730v-338h-144v338h144zM237 290v-337h-144v337h144z" />
    <glyph glyph-name="registered.ss07" horiz-adv-x="815" 
d="M408 695c198 0 364 -152 364 -355s-166 -355 -364 -355s-364 152 -364 355s166 355 364 355zM407 75c145 0 270 116 270 265s-125 265 -270 265c-144 0 -269 -116 -269 -265s125 -265 269 -265zM551 389c0 -41 -21 -71 -52 -89l67 -102h-106l-49 83h-38v-83h-88v303h136
c79 0 130 -42 130 -112zM373 424v-70h46c27 0 42 15 42 36c0 19 -15 34 -41 34h-47z" />
    <glyph glyph-name="uni0326" unicode="&#x326;" horiz-adv-x="0" 
d="M-383 -265l41 74c-31 13 -48 39 -48 67c0 44 38 80 85 80c46 0 84 -36 84 -80c0 -32 -11 -40 -79 -141h-83z" />
    <glyph glyph-name="acute" unicode="&#xb4;" 
d="M298 717h171l-100 -160h-151z" />
    <glyph glyph-name="breve" unicode="&#x2d8;" 
d="M475 710c0 -110 -73 -169 -175 -169s-175 59 -175 169h115c0 -45 26 -65 60 -65c33 0 60 20 60 65h115z" />
    <glyph glyph-name="caron" unicode="&#x2c7;" 
d="M352 713h142l-116 -160h-156l-116 160h142l53 -66z" />
    <glyph glyph-name="cedilla" unicode="&#xb8;" 
d="M387 -51l-71 -164h-135l54 164h152z" />
    <glyph glyph-name="circumflex" unicode="&#x2c6;" 
d="M352 553l-51 66l-53 -66h-141l117 164h153l116 -164h-141z" />
    <glyph glyph-name="dieresis" unicode="&#xa8;" 
d="M190 721c48 0 88 -37 88 -85s-40 -84 -88 -84c-49 0 -88 36 -88 84s39 85 88 85zM411 721c48 0 88 -37 88 -85s-40 -84 -88 -84c-49 0 -89 36 -89 84s40 85 89 85z" />
    <glyph glyph-name="dotaccent" unicode="&#x2d9;" 
d="M300 550c-51 0 -92 38 -92 88s41 88 92 88c50 0 91 -38 91 -88s-41 -88 -91 -88z" />
    <glyph glyph-name="grave" unicode="`" 
d="M326 717l80 -160h-151l-100 160h171z" />
    <glyph glyph-name="hungarumlaut" unicode="&#x2dd;" 
d="M208 718h144l-73 -160h-124zM372 718h144l-73 -160h-124z" />
    <glyph glyph-name="macron" unicode="&#xaf;" 
d="M157 694h286v-124h-286v124z" />
    <glyph glyph-name="ogonek" unicode="&#x2db;" 
d="M371 8c-45 -9 -60 -21 -60 -40c0 -17 16 -28 50 -28c16 0 28 2 47 7l15 -120c-14 -7 -48 -14 -81 -14c-93 0 -164 46 -164 127c0 56 55 117 174 130z" />
    <glyph glyph-name="ring" unicode="&#x2da;" 
d="M298 779c73 0 124 -46 124 -115s-51 -116 -124 -116s-124 47 -124 116s51 115 124 115zM298 620c27 0 44 18 44 44c0 25 -17 42 -44 42s-44 -17 -44 -42c0 -26 17 -44 44 -44z" />
    <glyph glyph-name="tilde" unicode="&#x2dc;" 
d="M497 705c0 -145 -119 -173 -189 -132l-38 22c-30 18 -40 -2 -40 -24h-119c0 145 119 172 189 132l38 -22c30 -18 40 2 40 24h119z" />
    <glyph glyph-name="caron.alt" 
d="M236 680h148l-39 -204h-115z" />
    <glyph glyph-name="acute.case" 
d="M298 877h171l-100 -160h-151z" />
    <glyph glyph-name="breve.case" 
d="M475 890c0 -110 -73 -169 -175 -169s-175 59 -175 169h115c0 -45 26 -65 60 -65c33 0 60 20 60 65h115z" />
    <glyph glyph-name="caron.case" 
d="M352 873h142l-116 -160h-156l-116 160h142l53 -66z" />
    <glyph glyph-name="circumflex.case" 
d="M352 713l-51 66l-53 -66h-141l117 164h153l116 -164h-141z" />
    <glyph glyph-name="dieresis.case" 
d="M190 901c48 0 88 -37 88 -85s-40 -84 -88 -84c-49 0 -88 36 -88 84s39 85 88 85zM411 901c48 0 88 -37 88 -85s-40 -84 -88 -84c-49 0 -89 36 -89 84s40 85 89 85z" />
    <glyph glyph-name="dotaccent.case" 
d="M300 723c-51 0 -92 38 -92 88s41 88 92 88c50 0 91 -38 91 -88s-41 -88 -91 -88z" />
    <glyph glyph-name="grave.case" 
d="M333 877l80 -160h-151l-100 160h171z" />
    <glyph glyph-name="hungarumlaut.case" 
d="M208 878h144l-73 -160h-124zM372 878h144l-73 -160h-124z" />
    <glyph glyph-name="macron.case" 
d="M157 854h286v-124h-286v124z" />
    <glyph glyph-name="ring.case" 
d="M298 952c73 0 124 -46 124 -115s-51 -116 -124 -116s-124 47 -124 116s51 115 124 115zM298 793c27 0 44 18 44 44c0 25 -17 42 -44 42s-44 -17 -44 -42c0 -26 17 -44 44 -44z" />
    <glyph glyph-name="tilde.case" 
d="M497 865c0 -145 -119 -173 -189 -132l-38 22c-30 18 -40 -2 -40 -24h-119c0 145 119 172 189 132l38 -22c30 -18 40 2 40 24h119z" />
    </font>
</defs>
</svg>
